Злая леди / The Wicked Lady (1945) WEB-DLRip 720p от KORSAR | L1

Скачать торрент (Doddle Loader)

Зеркало 1 (Media Get)


Название: Злая леди
Оригинальное название: The Wicked Lady
Год выпуска: 1945
Выпущено: Великобритания, Gainsborough Pictures
Жанр: Приключения, драма, экранизация
Режиссер: Лесли Арлисс
В ролях: Маргарет Локвуд, Джеймс Мэйсон, Патриция Рок, Гриффит Джонс, Майкл Ренни, Феликс Эйлмер, Энид Стемп-Тэйлор, Джин Кент, Фрэнсис Листер, Беатрис Варли

О фильме:
По роману Магдален Кинг-Холл «Жизнь и смерть злодейки леди Скелтон». Костюмированная готическо-романтическая мелодрама. Англия, XVII столетие. Леди Барбара — красивая, скучающая молодая женщина — в виде развлечения крадет жениха своей лучшей подруги Каролины. Эгоистичная и злая Барбара, используя свою красоту, обольщает слабого Ральфа, который быстро влюбляется в нее, и выходит за него замуж. Но жизнь богатого сквайра сэра Ральфа Шелтона (Skelton) оказывается слишком скучной для Барбары. После того, как она запоздало обнаружит, что замужняя жизнь несколько уныла, она увлечется азартными играми. Но когда девушка проиграет в пылу азарта драгоценный камень, унаследованный ею от матери, Леди Генриетты, Барбара решит во чтобы то ни стало вернуть камень. После того, как она услышала рассказы о деяниях разбойника Джерри Джексона, она надевает маску, плащ, берет пистолеты и выходит на дорогу для разбоя. Выдав себя за «Капитана дорог» Джерри Джексона, Барбара возвращает свои драгоценности. Острые ощущения, пережитые ею, оказываются столь захватывающими, что Барбара говорит: «Как только человек встает на эту дорогу, все остальное кажется пресным и безвкусным. Я не представляю, как я могу бросить это». Вскоре она встречается с реальным Джексоном. И, конечно, у них возникает удивительное товарищество как в любви, так и в разбое на большой дороге. Они начинают вести веселую, полную приключений тайную жизнь, стараясь ускользать от преследования местного судьи сэра Ральфа Шелтона… мужа Барбары! Жизнь — это цепь причин, и всегда одни события приводят к другим, грабежам, убийствам, предательству…

Продолжительность: 01:44:18
Перевод: Любительский одноголосый
Субтитры: Английские
Навигация по главам: Есть

Файл
Качество: WEB-DLRip 720p
Видео: MPEG-4 AVC, 7200 Кбит/сек, 960×720, 23,976 кадра/сек
Аудио #1: AC3, 2 ch, 192 Кбит/сек | Русский, любительский (одноголосый закадровый) USHER
Аудио #2: AC3, 1 ch, 384 Кбит/сек | Английский, оригинал

Релиз от:

Скриншоты

Инфо-файл

x264 (info): frame I:770 Avg QP:15.99 size: 111438
x264 (info): frame P:29077 Avg QP:18.66 size: 60936
x264 (info): frame B:120201 Avg QP:21.10 size: 31403
—————————————————-
Общее
Уникальный идентификатор : 243738538167162627111762665881806236471 (0xB75E55BDB15518E485C71F83B79AEB37)
Полное имя : Злая.леди.1945.WEB-DLRip.720p.KORSAR.mkv
Формат : Matroska
Размер файла : 5,67 Гбайт
Продолжительность : 1 ч. 44 м.
Общий поток : 7777 Кбит/сек
Дата кодирования : UTC 2017-10-07 15:26:31
Программа кодирования : mkvmerge v5.8.0 (‘No Sleep / Pillow’) built on Sep 2 2012 15:37:04
Библиотека кодирования : libebml v1.2.3 + libmatroska v1.3.0

Видео
Идентификатор : 1
Формат : AVC
Формат/Информация : Advanced Video Codec
Профиль формата : [email protected]
Параметр CABAC формата : Да
Параметр ReFrames формата : 12 кадров
Идентификатор кодека : V_MPEG4/ISO/AVC
Продолжительность : 1 ч. 44 м.
Битрейт : 7200 Кбит/сек
Ширина : 960 пикс.
Высота : 720 пикс.
Соотношение сторон : 4:3
Частота кадров : 23,976 кадр/сек
Цветовое пространство : YUV
Подвыборка цветности : 4:2:0
Битовая глубина : 8 бит
Тип развёртки : Прогрессивная
Бит/(Пиксели*Кадры) : 0.434
Размер потока : 5,13 Гбайт (91%)
Заголовок : RIP | MZMA
Библиотека кодирования : x264 core 148 r2638 7599210
Настройки программы : cabac=1 / ref=12 / deblock=1:-3:-3 / analyse=0x3:0x113 / me=umh / subme=11 / psy=1 / psy_rd=1.00:0.00 / mixed_ref=1 / me_range=48 / chroma_me=1 / trellis=2 / 8x8dct=1 / cqm=0 / deadzone=21,11 / fast_pskip=0 / chroma_qp_offset=-2 / threads=6 / lookahead_threads=1 / sliced_threads=0 / nr=0 / decimate=0 / interlaced=0 / bluray_compat=0 / constrained_intra=0 / bframes=16 / b_pyramid=2 / b_adapt=2 / b_bias=0 / direct=3 / weightb=1 / open_gop=0 / weightp=2 / keyint=240 / keyint_min=23 / scenecut=40 / intra_refresh=0 / rc_lookahead=60 / rc=2pass / mbtree=1 / bitrate=7200 / ratetol=1.0 / qcomp=0.60 / qpmin=0 / qpmax=69 / qpstep=4 / cplxblur=20.0 / qblur=0.5 / vbv_maxrate=50000 / vbv_bufsize=62500 / nal_hrd=none / filler=0 / ip_ratio=1.40 / aq=2:1.00
Язык : English
Основные цвета : BT.709
Характеристики трансфера : BT.709
Коэффициенты матрицы : BT.709

Аудио #1
Идентификатор : 2
Формат : AC-3
Формат/Информация : Audio Coding 3
Расширение режима : CM (complete main)
Идентификатор кодека : A_AC3
Продолжительность : 1 ч. 44 м.
Вид битрейта : Постоянный
Битрейт : 192 Кбит/сек
Каналы : 2 канала
Расположение каналов : Front: L R
Частота : 48,0 КГц
Битовая глубина : 16 бит
Метод сжатия : С потерями
Размер потока : 143 Мбайт (2%)
Заголовок : VO | USHER
Язык : Russian

Аудио #2
Идентификатор : 3
Формат : AC-3
Формат/Информация : Audio Coding 3
Расширение режима : CM (complete main)
Идентификатор кодека : A_AC3
Продолжительность : 1 ч. 44 м.
Вид битрейта : Постоянный
Битрейт : 384 Кбит/сек
Каналы : 1 канал
Расположение каналов : Front: C
Частота : 48,0 КГц
Битовая глубина : 16 бит
Метод сжатия : С потерями
Размер потока : 287 Мбайт (5%)
Заголовок : Original
Язык : English

Текст #1
Идентификатор : 4
Формат : UTF-8
Идентификатор кодека : S_TEXT/UTF8
Идентификатор кодека/Информация : UTF-8 Plain Text
Язык : English

Текст #2
Идентификатор : 5
Формат : UTF-8
Идентификатор кодека : S_TEXT/UTF8
Идентификатор кодека/Информация : UTF-8 Plain Text
Заголовок : SDH
Язык : English

Меню
00:00:00.000 : en:Chapter 1
00:06:58.543 : en:Chapter 2
00:13:33.543 : en:Chapter 3
00:19:22.543 : en:Chapter 4
00:23:38.210 : en:Chapter 5
00:28:20.377 : en:Chapter 6
00:32:27.711 : en:Chapter 7
00:37:46.011 : en:Chapter 8
00:44:24.545 : en:Chapter 9
00:51:16.545 : en:Chapter 10
00:56:13.545 : en:Chapter 11
01:02:00.379 : en:Chapter 12
01:07:24.313 : en:Chapter 13
01:13:46.047 : en:Chapter 14
01:17:57.814 : en:Chapter 15
01:25:49.581 : en:Chapter 16
01:29:35.848 : en:Chapter 17
01:36:00.215 : en:Chapter 18
01:40:21.749 : en:Chapter 19
01:44:12.617 : en:Chapter 20

Благодарности

За исходный DVD (аудио-дорожки, чаптеры) — AlekceyR76.

Добавлен 21-01-2018 15:47:09 (3 часа назад)
Размер 5.67 GB (6084763936 Bytes)  





Добавить комментарий

Ваш e-mail не будет опубликован. Обязательные поля помечены *

*
*