Жажда жизни / Lust for Life (1956) BDRip 1080p | P

Скачать торрент (Doddle Loader)

Зеркало 1 (Media Get)

Информация о фильме
Название: Жажда жизни
Оригинальное название: Lust for Life
Год выхода: 1956
Жанр: Драма, биография
Режиссеры: Винсент Миннелли, Джордж Кьюкор
В ролях: Кирк Дуглас, Энтони Куинн, Джеймс Дональд, Памела Браун, Эверет Слоун, Ниалл МакГиннис, Ноэл Пёрселл, Генри Дэниелл, Мэдж Кеннеди, Джилл Беннетт, Лайонел Джеффрис, Лоуренс Нэйсмит, Эрик Польман, Джанетт Стерк, Тони Джерри, Вилтон Графф, Изобел Элсом, Дэвид Хорн, Ноэль Хоулетт, Рональд Адам

О фильме:
После смерти отца Ван Гог перебрался в Париж, примкнул к художникам-импрессионистам. Однажды Ван Гог познакомился с художником Полем Гогеном. Время проходило в работе и творческих спорах, переходящих в ссоры. Ван Гог все чаще переживал приступы безумия: во время одного из них он отрезал себе ухо…


Страна: США
Студия: Metro-Goldwyn-Mayer (MGM)
Продолжительность: 02:02:19
Перевод: Профессиональный (многоголосый, закадровый)

Файл
Кодек: x264
Качество: BDRip 1080p
Видео: MPEG-4 AVC, 8726 Кбит/с, 1920×752, 23.976 кадр/с
Звук:
Аудио#1: Russian AC3, 48.0 khz, 2 ch, 192 kbps — MVO
Аудио#2: English DTS, 48.0 khz, 6 ch, 1509 kbps — Оригинал (английский)
Субтитры: Английские, английские (SDH)
Сэмпл: скачать

MediaInfo

General
Unique ID : 218199275462577330715609212077855686436 (0xA427A6DF5C118998B4BEC08905033F24)
Complete name : I:Lust.for.Life.1956.P.BDRip.1080p.x264.Rus.Eng.mkv
Format : Matroska
Format version : Version 4 / Version 2
File size : 8.91 GiB
Duration : 2 h 2 min
Overall bit rate : 10.4 Mb/s
Encoded date : UTC 2018-01-21 08:07:38
Writing application : mkvmerge v8.3.0 (‘Over the Horizon’) 32bit
Writing library : libebml v1.3.1 + libmatroska v1.4.2
Attachments : poster.jpg

Video
ID : 1
Format : AVC
Format/Info : Advanced Video Codec
Format profile : [email protected]
Format settings, CABAC : Yes
Format settings, ReFrames : 5 frames
Codec ID : V_MPEG4/ISO/AVC
Duration : 2 h 2 min
Bit rate : 8 726 kb/s
Width : 1 920 pixels
Height : 752 pixels
Display aspect ratio : 2.553
Frame rate mode : Constant
Frame rate : 23.976 (24000/1001) FPS
Color space : YUV
Chroma subsampling : 4:2:0
Bit depth : 8 bits
Scan type : Progressive
Bits/(Pixel*Frame) : 0.252
Stream size : 7.45 GiB (84%)
Writing library : x264 core 144 r2525 40bb568
Encoding settings : cabac=1 / ref=5 / deblock=1:-3:-3 / analyse=0x3:0x113 / me=umh / subme=8 / psy=1 / psy_rd=1.00:0.00 / mixed_ref=1 / me_range=16 / chroma_me=1 / trellis=1 / 8x8dct=1 / cqm=0 / deadzone=21,11 / fast_pskip=1 / chroma_qp_offset=-2 / threads=12 / lookahead_threads=2 / sliced_threads=0 / nr=0 / decimate=1 / interlaced=0 / bluray_compat=0 / constrained_intra=0 / bframes=3 / b_pyramid=2 / b_adapt=2 / b_bias=0 / direct=3 / weightb=1 / open_gop=0 / weightp=2 / keyint=240 / keyint_min=24 / scenecut=40 / intra_refresh=0 / rc_lookahead=50 / rc=2pass / mbtree=1 / bitrate=8726 / ratetol=1.0 / qcomp=0.60 / qpmin=0 / qpmax=69 / qpstep=4 / cplxblur=20.0 / qblur=0.5 / ip_ratio=1.40 / aq=1:1.00
Language : English
Default : Yes
Forced : No

Audio #1
ID : 2
Format : AC-3
Format/Info : Audio Coding 3
Format settings, Endianness : Big
Codec ID : A_AC3
Duration : 2 h 2 min
Bit rate mode : Constant
Bit rate : 192 kb/s
Channel(s) : 2 channels
Channel positions : Front: L R
Sampling rate : 48.0 kHz
Frame rate : 31.250 FPS (1536 spf)
Bit depth : 16 bits
Compression mode : Lossy
Stream size : 168 MiB (2%)
Title : Профессиональный (многоголосый, закадровый)
Language : Russian
Service kind : Complete Main
Default : Yes
Forced : No

Audio #2
ID : 3
Format : DTS
Format/Info : Digital Theater Systems
Mode : 16
Format settings, Endianness : Big
Codec ID : A_DTS
Duration : 2 h 2 min
Bit rate mode : Constant
Bit rate : 1 509 kb/s
Channel(s) : 6 channels
Channel positions : Front: L C R, Side: L R, LFE
Sampling rate : 48.0 kHz
Frame rate : 93.750 FPS (512 spf)
Bit depth : 24 bits
Compression mode : Lossy
Stream size : 1.29 GiB (14%)
Title : Original
Language : English
Default : No
Forced : No

Text #1
ID : 4
Format : UTF-8
Codec ID : S_TEXT/UTF8
Codec ID/Info : UTF-8 Plain Text
Duration : 1 h 59 min
Bit rate : 73 b/s
Count of elements : 1549
Stream size : 64.6 KiB (0%)
Title : SDH
Language : English
Default : No
Forced : No

Text #2
ID : 5
Format : UTF-8
Codec ID : S_TEXT/UTF8
Codec ID/Info : UTF-8 Plain Text
Duration : 1 h 58 min
Bit rate : 72 b/s
Count of elements : 1503
Stream size : 62.6 KiB (0%)
Language : English
Default : No
Forced : No

Menu
00:00:00.000 : en:00:00:00.000
00:00:45.545 : en:00:00:45.545
00:10:05.855 : en:00:10:05.855
00:20:44.243 : en:00:20:44.243
00:30:30.328 : en:00:30:30.328
00:39:37.792 : en:00:39:37.792
00:50:18.515 : en:00:50:18.515
01:00:00.347 : en:01:00:00.347
01:09:39.384 : en:01:09:39.384
01:22:00.958 : en:01:22:00.958
01:31:48.420 : en:01:31:48.420
01:39:56.324 : en:01:39:56.324
01:50:54.731 : en:01:50:54.731
02:00:08.910 : en:02:00:08.910

Скриншоты

Добавлен 21-01-2018 12:58:43 (11 секунду назад)
Размер 8.91 GB (9567731205 Bytes)  





Добавить комментарий

Ваш e-mail не будет опубликован. Обязательные поля помечены *

*
*