Взвод / Platoon (1986) BDRip 720p от KORSAR | D, Р2, Р1, А

Скачать торрент (Doddle Loader)

Зеркало 1 (Media Get)


Взвод / Platoon

«The first casualty of war is innocence.»

Год выпуска: 1986
Выпущено: Великобритания, США
Жанр: боевик, драма, военный
Продолжительность: 01:59:50
Перевод: Дублированный, профессиональный многоголосый, профессиональный двухголосый,
авторский одноголосый, профессиональный одноголосый

Режиссер: Оливер Стоун / Oliver Stone
В ролях: Том Беренджер, Уиллем Дефо, Чарли Шин, Форест Уитакер, Франческо Куинн, Джон К. МакГинли,
Ричард Эдсон, Кевин Диллон, Марк Мозес, Кит Дэвид

О фильме: В сентябре 1967 года куда-то в приграничный район между Вьетнамом и Камбоджей прибыл рядовой 25-го пехотного полка Крис Тэйлор.
Прибыл, чтобы своими глазами увидеть, как выглядит подлинный Ад. Не потусторонний, вымышленный, сочиненный писателями или художниками,
а натуральный, здешний, вполне земной Ад, на территории которого схлестнулись друг с другом сержант Боб Барнс и сержант Илайес Гродин.
Они тоже думали, что будут воевать с партизанами-вьетконговцами, но оказалось, что иногда приходится драться со своими…

Кодек: х264
Качество: BDRip 720p
Видео: MPEG-4 AVC, 1278х692, 23,976 fps, 8150 Кбит/с
Аудио #01: Русский: 48 kHz, AC3, 6 ch, 384 Кбит/с |Двухголосый закадровый, Blu-ray CEE|
Аудио #02: Русский: 48 kHz, AC3, 2 ch, 192 Кбит/с |Дубляж, Варус-видео|
Аудио #03: Русский: 48 kHz, AC3, 6 ch, 384 Кбит/с |Многоголосый закадровый|
Аудио #04: Русский: 48 kHz, AC3, 2 ch, 128 kbps avg |Многоголосый закадровый, Первый канал|
Аудио #05: Русский: 48 kHz, AC3, 2 ch, 192 Кбит/с |Многоголосый закадровый, Пятый канал|
Аудио #06: Русский: 48 kHz, AC3, 2 ch, 192 Кбит/с |Двухголосый закадровый, Лазер-видео|
Аудио #07: Русский: 48 kHz, AC3, 2 ch, 192 Кбит/с |Двухголосый закадровый, SDI Media|
Аудио #08: Русский: 48 kHz, AC3, 2 ch, 224 Кбит/с |Двухголосый закадровый, РТР|
Аудио #09: Русский: 48 kHz, AC3, 6 ch, 384 Кбит/с |Одноголосый закадровый, Д. Пучков|
Аудио #10: Русский: 48 kHz, AC3, 6 ch, 384 Кбит/с |Одноголосый закадровый, А. Гаврилов|
Аудио #11: Русский: 48 kHz, AC3, 6 ch, 384 Кбит/с |Одноголосый закадровый, В. Горчаков|
Аудио #12: Русский: 48 kHz, AC3, 6 ch, 384 Кбит/с |Одноголосый закадровый, Ю. Живов|
Аудио #13: Русский: 48 kHz, AC3, 2 ch, 192 Кбит/с |Одноголосый закадровый, Ю. Сербин|
Аудио #14: Русский: 48 kHz, AC3, 2 ch, 192 Кбит/с |Одноголосый закадровый, И. Еремеев|
Аудио #15: Русский: 48 kHz, AC3, 2 ch, 192 Кбит/с |Одноголосый закадровый, НТВ|
Аудио #16: Русский: 48 kHz, AC3, 2 ch, 192 Кбит/с |Одноголосый закадровый, MGM|
Аудио #17: Украинский: 48 kHz, AC3, 2 ch, 192 Кбит/с |Многоголосый закадровый|
Аудио #18: Английский: 48 kHz, AC3, 6 ch, 384 Кбит/с
Субтитры: Русские 4шт, Украинские, Английские
Главы: Есть

Знаете ли Вы, что…

· Изначально Чарли Шин был отвергнут создателями в силу своего возраста и роль предложили его старшему брату Эмилио Эстевезу. Но у проекта возникли финансовые трудности и сьёмки отложили на два года. Когда сьёмки возобновились Эмилио уже был связан другими обстоятельствами и Чарли получил роль.

· От роли рядового Криса Тейлора отказались Киану Ривз и Кайл МакЛохлан.

· Оливер Стоун сыграл небольшое камео-офицера, находящегося в бункере.

· Закадровый текст в картине читает Чарли Шин, также, как это делал его отец (Мартин Шин) в «Апокалипсисе сегодня».

· Перед началом сьёмок все актёры прошли 13-ти дневную военную подготовку.

· На каске героя Джонни Деппа выведено имя его тогдашней спутницы Шерелин Фенн. Её инициалы выгравированы на гитаре героя Деппа.

· Перед съёмкой сцены, где солдаты курят травку, актёрам в самом деле пришлось попробовать её. Но, по словам Уиллема Дефо, к моменту сьёмок весь эффект от наркотика пропал и актёры чуствовали себя ужасно.

· На рекламном плакате фильма буквы «o» в названии заменены личными солдатскими жетонами армии США, известными среди солдат как «собачьи жетоны».

· Министерство обороны США отказалось оказывать какую-либо помощь в создании фильма, посчитав его «непатриотическим».

· В конце фильма напалмовую атаку производит истребитель F-5 ВВС Филиппин.

· Ночное сражение, происходящее в конце фильма, основано на реально имевшем место сражении за американскую базу огневой поддержки Burt (2 января 1968), в котором Оливер Стоун принимал участие.

· Спустя два года после выхода фильма была выпущена компьютерная игра Platoon для ряда платформ, разработанная по мотивам фильма.

· На каске Тейлора написано: «When I die Bury me Upside down So the world Can kiss my ass».

· Сцена, в которой Крис спасает вьетнамскую девушку от изнасилования — реальный случай с Оливером Стоуном во Вьетнаме.

Скриншоты

Инфо файл

x264 (info): frame I:903 Avg QP:18.88 size:141005
x264 (info): frame P:36996 Avg QP:21.36 size: 73460
x264 (info): frame B:134479 Avg QP:22.97 size: 33255

Общее
Уникальный идентификатор : 185784856262316227223817530884616097768 (0x8BC4DC9E32FAEFBBAF5D2D1376700FE8)
Полное имя : E:Мои рипыВзвод 1986_BDRip 720_KORSAR.mkv
Формат : Matroska
Версия формата : Version 2
Размер файла : 10,8 Гбайт
Продолжительность : 1 ч. 59 м.
Общий поток : 12,9 Мбит/сек
Название фильма : Взвод 1986_KORSAR
Дата кодирования : UTC 2018-01-22 08:51:03
Программа кодирования : mkvmerge v5.8.0 (‘No Sleep / Pillow’) built on Sep 2 2012 15:37:04
Библиотека кодирования : libebml v1.2.3 + libmatroska v1.3.0
Обложка : Yes
Attachments : cover.jpg / xlog.txt

Видео
Идентификатор : 1
Формат : AVC
Формат/Информация : Advanced Video Codec
Профиль формата : [email protected]
Настройки формата : CABAC / 9 Ref Frames
Параметр CABAC формата : Да
Параметр RefFrames формата : 9 кадров
Идентификатор кодека : V_MPEG4/ISO/AVC
Продолжительность : 1 ч. 59 м.
Битрейт : 8150 Кбит/сек
Ширина : 1278 пикселей
Высота : 692 пикселя
Соотношение сторон : 1,85:1
Режим частоты кадров : Постоянный
Частота кадров : 23,976 (24000/1001) кадра/сек
Цветовое пространство : YUV
Субдискретизация насыщенности : 4:2:0
Битовая глубина : 8 бит
Тип развёртки : Прогрессивная
Бит/(Пиксели*Кадры) : 0.384
Размер потока : 6,60 Гбайт (61%)
Библиотека кодирования : x264 core 152 r2851kMod ba24899
Настройки программы : cabac=1 / ref=9 / deblock=1:-2:-2 / analyse=0x3:0x113 / me=umh / subme=11 / psy=1 / fade_compensate=0.00 / psy_rd=1.03:0.09 / mixed_ref=1 / me_range=48 / chroma_me=1 / trellis=2 / 8x8dct=1 / cqm=0 / deadzone=21,11 / fast_pskip=0 / chroma_qp_offset=-3 / threads=12 / lookahead_threads=3 / sliced_threads=0 / nr=0 / decimate=0 / interlaced=0 / bluray_compat=0 / constrained_intra=0 / bframes=14 / b_pyramid=2 / b_adapt=2 / b_bias=0 / direct=3 / weightb=1 / open_gop=0 / weightp=2 / keyint=240 / keyint_min=23 / scenecut=40 / intra_refresh=0 / rc_lookahead=40 / rc=2pass / mbtree=0 / bitrate=8150 / ratetol=1.0 / qcomp=0.60 / qpmin=0 / qpmax=39 / qpstep=4 / cplxblur=20.0 / qblur=0.5 / vbv_maxrate=50000 / vbv_bufsize=62500 / nal_hrd=none / filler=0 / ip_ratio=1.25 / pb_ratio=1.30 / aq=1:0.90
Язык : English
Default : Да
Forced : Нет
Цветовой диапазон : Limited
Основные цвета : BT.709
Характеристики трансфера : BT.709
Коэффициенты матрицы : BT.709

Аудио #1
Идентификатор : 2
Формат : AC-3
Формат/Информация : Audio Coding 3
Параметр Endianness формата : Big
Идентификатор кодека : A_AC3
Продолжительность : 1 ч. 59 м.
Вид битрейта : Постоянный
Битрейт : 384 Кбит/сек
Каналы : 6 каналов
Расположение каналов : Front: L C R, Side: L R, LFE
Частота : 48,0 КГц
Частота кадров : 31,250 кадров/сек (1536 SPF)
Битовая глубина : 16 бит
Метод сжатия : С потерями
Размер потока : 329 Мбайт (3%)
Заголовок : DVO Blu-ray CEE
Язык : Russian
Default : Да
Forced : Нет

Аудио #2
Идентификатор : 3
Формат : AC-3
Формат/Информация : Audio Coding 3
Параметр Endianness формата : Big
Идентификатор кодека : A_AC3
Продолжительность : 1 ч. 59 м.
Вид битрейта : Постоянный
Битрейт : 192 Кбит/сек
Каналы : 2 канала
Расположение каналов : Front: L R
Частота : 48,0 КГц
Частота кадров : 31,250 кадров/сек (1536 SPF)
Битовая глубина : 16 бит
Метод сжатия : С потерями
Размер потока : 165 Мбайт (1%)
Заголовок : Дубляж Варус-Видео
Язык : Russian
Default : Нет
Forced : Нет

Аудио #3
Идентификатор : 4
Формат : AC-3
Формат/Информация : Audio Coding 3
Параметр Endianness формата : Big
Идентификатор кодека : A_AC3
Продолжительность : 1 ч. 59 м.
Вид битрейта : Постоянный
Битрейт : 384 Кбит/сек
Каналы : 6 каналов
Расположение каналов : Front: L C R, Side: L R, LFE
Частота : 48,0 КГц
Частота кадров : 31,250 кадров/сек (1536 SPF)
Битовая глубина : 16 бит
Метод сжатия : С потерями
Размер потока : 329 Мбайт (3%)
Заголовок : DVO
Язык : Russian
Default : Нет
Forced : Нет

Аудио #4
Идентификатор : 5
Формат : AC-3
Формат/Информация : Audio Coding 3
Параметр Endianness формата : Big
Идентификатор кодека : A_AC3
Продолжительность : 1 ч. 59 м.
Вид битрейта : Постоянный
Битрейт : 128 Кбит/сек
Каналы : 2 канала
Расположение каналов : Front: L R
Частота : 48,0 КГц
Частота кадров : 31,250 кадров/сек (1536 SPF)
Битовая глубина : 16 бит
Метод сжатия : С потерями
Размер потока : 110 Мбайт (1%)
Заголовок : MVO — 1 канал
Язык : Russian
Default : Нет
Forced : Нет

Аудио #5
Идентификатор : 6
Формат : AC-3
Формат/Информация : Audio Coding 3
Параметр Endianness формата : Big
Идентификатор кодека : A_AC3
Продолжительность : 1 ч. 59 м.
Вид битрейта : Постоянный
Битрейт : 192 Кбит/сек
Каналы : 2 канала
Расположение каналов : Front: L R
Частота : 48,0 КГц
Частота кадров : 31,250 кадров/сек (1536 SPF)
Битовая глубина : 16 бит
Метод сжатия : С потерями
Размер потока : 165 Мбайт (1%)
Заголовок : MVO — 5 канал
Язык : Russian
Default : Нет
Forced : Нет

Аудио #6
Идентификатор : 7
Формат : AC-3
Формат/Информация : Audio Coding 3
Параметр Endianness формата : Big
Идентификатор кодека : A_AC3
Продолжительность : 1 ч. 59 м.
Вид битрейта : Постоянный
Битрейт : 192 Кбит/сек
Каналы : 2 канала
Расположение каналов : Front: L R
Частота : 48,0 КГц
Частота кадров : 31,250 кадров/сек (1536 SPF)
Битовая глубина : 16 бит
Метод сжатия : С потерями
Размер потока : 165 Мбайт (1%)
Заголовок : DVO — Лазер-Видео
Язык : Russian
Default : Нет
Forced : Нет

Аудио #7
Идентификатор : 8
Формат : AC-3
Формат/Информация : Audio Coding 3
Параметр Endianness формата : Big
Идентификатор кодека : A_AC3
Продолжительность : 1 ч. 59 м.
Вид битрейта : Постоянный
Битрейт : 192 Кбит/сек
Каналы : 2 канала
Расположение каналов : Front: L R
Частота : 48,0 КГц
Частота кадров : 31,250 кадров/сек (1536 SPF)
Битовая глубина : 16 бит
Метод сжатия : С потерями
Размер потока : 165 Мбайт (1%)
Заголовок : DVO — SDI Media
Язык : Russian
Default : Нет
Forced : Нет

Аудио #8
Идентификатор : 9
Формат : AC-3
Формат/Информация : Audio Coding 3
Параметр Endianness формата : Big
Идентификатор кодека : A_AC3
Продолжительность : 1 ч. 59 м.
Вид битрейта : Постоянный
Битрейт : 224 Кбит/сек
Каналы : 2 канала
Расположение каналов : Front: L R
Частота : 48,0 КГц
Частота кадров : 31,250 кадров/сек (1536 SPF)
Битовая глубина : 16 бит
Метод сжатия : С потерями
Размер потока : 192 Мбайт (2%)
Заголовок : DVO — РТР
Язык : Russian
Default : Нет
Forced : Нет

Аудио #9
Идентификатор : 10
Формат : AC-3
Формат/Информация : Audio Coding 3
Параметр Endianness формата : Big
Идентификатор кодека : A_AC3
Продолжительность : 1 ч. 59 м.
Вид битрейта : Постоянный
Битрейт : 384 Кбит/сек
Каналы : 6 каналов
Расположение каналов : Front: L C R, Side: L R, LFE
Частота : 48,0 КГц
Частота кадров : 31,250 кадров/сек (1536 SPF)
Битовая глубина : 16 бит
Метод сжатия : С потерями
Размер потока : 329 Мбайт (3%)
Заголовок : AVO — GOBLIN
Язык : Russian
Default : Нет
Forced : Нет

Аудио #10
Идентификатор : 11
Формат : AC-3
Формат/Информация : Audio Coding 3
Параметр Endianness формата : Big
Идентификатор кодека : A_AC3
Продолжительность : 1 ч. 59 м.
Вид битрейта : Постоянный
Битрейт : 384 Кбит/сек
Каналы : 6 каналов
Расположение каналов : Front: L C R, Side: L R, LFE
Частота : 48,0 КГц
Частота кадров : 31,250 кадров/сек (1536 SPF)
Битовая глубина : 16 бит
Метод сжатия : С потерями
Размер потока : 329 Мбайт (3%)
Заголовок : AVO — А.Гаврилов
Язык : Russian
Default : Нет
Forced : Нет

Аудио #11
Идентификатор : 12
Формат : AC-3
Формат/Информация : Audio Coding 3
Параметр Endianness формата : Big
Идентификатор кодека : A_AC3
Продолжительность : 1 ч. 59 м.
Вид битрейта : Постоянный
Битрейт : 384 Кбит/сек
Каналы : 6 каналов
Расположение каналов : Front: L C R, Side: L R, LFE
Частота : 48,0 КГц
Частота кадров : 31,250 кадров/сек (1536 SPF)
Битовая глубина : 16 бит
Метод сжатия : С потерями
Размер потока : 329 Мбайт (3%)
Заголовок : AVO — Горчаков
Язык : Russian
Default : Нет
Forced : Нет

Аудио #12
Идентификатор : 13
Формат : AC-3
Формат/Информация : Audio Coding 3
Параметр Endianness формата : Big
Идентификатор кодека : A_AC3
Продолжительность : 1 ч. 59 м.
Вид битрейта : Постоянный
Битрейт : 384 Кбит/сек
Каналы : 6 каналов
Расположение каналов : Front: L C R, Side: L R, LFE
Частота : 48,0 КГц
Частота кадров : 31,250 кадров/сек (1536 SPF)
Битовая глубина : 16 бит
Метод сжатия : С потерями
Размер потока : 329 Мбайт (3%)
Заголовок : AVO — Ю.Живов
Язык : Russian
Default : Нет
Forced : Нет

Аудио #13
Идентификатор : 14
Формат : AC-3
Формат/Информация : Audio Coding 3
Параметр Endianness формата : Big
Идентификатор кодека : A_AC3
Продолжительность : 1 ч. 59 м.
Вид битрейта : Постоянный
Битрейт : 192 Кбит/сек
Каналы : 2 канала
Расположение каналов : Front: L R
Частота : 48,0 КГц
Частота кадров : 31,250 кадров/сек (1536 SPF)
Битовая глубина : 16 бит
Метод сжатия : С потерями
Размер потока : 165 Мбайт (1%)
Заголовок : AVO — Сербин
Язык : Russian
Default : Нет
Forced : Нет

Аудио #14
Идентификатор : 15
Формат : AC-3
Формат/Информация : Audio Coding 3
Параметр Endianness формата : Big
Идентификатор кодека : A_AC3
Продолжительность : 1 ч. 59 м.
Вид битрейта : Постоянный
Битрейт : 192 Кбит/сек
Каналы : 2 канала
Расположение каналов : Front: L R
Частота : 48,0 КГц
Частота кадров : 31,250 кадров/сек (1536 SPF)
Битовая глубина : 16 бит
Метод сжатия : С потерями
Размер потока : 165 Мбайт (1%)
Заголовок : AVO — Еремеев
Язык : Russian
Default : Нет
Forced : Нет

Аудио #15
Идентификатор : 16
Формат : AC-3
Формат/Информация : Audio Coding 3
Параметр Endianness формата : Big
Идентификатор кодека : A_AC3
Продолжительность : 1 ч. 59 м.
Вид битрейта : Постоянный
Битрейт : 192 Кбит/сек
Каналы : 2 канала
Расположение каналов : Front: L R
Частота : 48,0 КГц
Частота кадров : 31,250 кадров/сек (1536 SPF)
Битовая глубина : 16 бит
Метод сжатия : С потерями
Размер потока : 165 Мбайт (1%)
Заголовок : ASO — НТВ
Язык : Russian
Default : Нет
Forced : Нет

Аудио #16
Идентификатор : 17
Формат : AC-3
Формат/Информация : Audio Coding 3
Параметр Endianness формата : Big
Идентификатор кодека : A_AC3
Продолжительность : 1 ч. 59 м.
Вид битрейта : Постоянный
Битрейт : 192 Кбит/сек
Каналы : 2 канала
Расположение каналов : Front: L R
Частота : 48,0 КГц
Частота кадров : 31,250 кадров/сек (1536 SPF)
Битовая глубина : 16 бит
Метод сжатия : С потерями
Размер потока : 165 Мбайт (1%)
Заголовок : ASO — MGM
Язык : Russian
Default : Нет
Forced : Нет

Аудио #17
Идентификатор : 18
Формат : AC-3
Формат/Информация : Audio Coding 3
Параметр Endianness формата : Big
Идентификатор кодека : A_AC3
Продолжительность : 1 ч. 59 м.
Вид битрейта : Постоянный
Битрейт : 192 Кбит/сек
Каналы : 2 канала
Расположение каналов : Front: L R
Частота : 48,0 КГц
Частота кадров : 31,250 кадров/сек (1536 SPF)
Битовая глубина : 16 бит
Метод сжатия : С потерями
Размер потока : 165 Мбайт (1%)
Заголовок : — MVO —
Язык : Ukrainian
Default : Нет
Forced : Нет

Аудио #18
Идентификатор : 19
Формат : AC-3
Формат/Информация : Audio Coding 3
Параметр Endianness формата : Big
Идентификатор кодека : A_AC3
Продолжительность : 1 ч. 59 м.
Вид битрейта : Постоянный
Битрейт : 384 Кбит/сек
Каналы : 6 каналов
Расположение каналов : Front: L C R, Side: L R, LFE
Частота : 48,0 КГц
Частота кадров : 31,250 кадров/сек (1536 SPF)
Битовая глубина : 16 бит
Метод сжатия : С потерями
Размер потока : 329 Мбайт (3%)
Язык : English
Default : Нет
Forced : Нет

Текст #1
Идентификатор : 20
Формат : UTF-8
Идентификатор кодека : S_TEXT/UTF8
Идентификатор кодека/Информация : UTF-8 Plain Text
Заголовок : — R5 —
Язык : Russian
Default : Нет
Forced : Нет

Текст #2
Идентификатор : 21
Формат : UTF-8
Идентификатор кодека : S_TEXT/UTF8
Идентификатор кодека/Информация : UTF-8 Plain Text
Заголовок : — Rufilms —
Язык : Russian
Default : Нет
Forced : Нет

Текст #3
Идентификатор : 22
Формат : UTF-8
Идентификатор кодека : S_TEXT/UTF8
Идентификатор кодека/Информация : UTF-8 Plain Text
Заголовок : — Superbit —
Язык : Russian
Default : Нет
Forced : Нет

Текст #4
Идентификатор : 23
Формат : UTF-8
Идентификатор кодека : S_TEXT/UTF8
Идентификатор кодека/Информация : UTF-8 Plain Text
Заголовок : — Goblin —
Язык : Russian
Default : Нет
Forced : Нет

Текст #5
Идентификатор : 24
Формат : UTF-8
Идентификатор кодека : S_TEXT/UTF8
Идентификатор кодека/Информация : UTF-8 Plain Text
Заголовок : RuFilms
Язык : Ukrainian
Default : Нет
Forced : Нет

Текст #6
Идентификатор : 25
Формат : UTF-8
Идентификатор кодека : S_TEXT/UTF8
Идентификатор кодека/Информация : UTF-8 Plain Text
Заголовок : — SDH —
Язык : English
Default : Нет
Forced : Нет

Меню
00:00:00.000 : en:00:00:00.000
00:02:57.135 : en:00:02:57.135
00:05:26.535 : en:00:05:26.535
00:08:14.536 : en:00:08:14.536
00:11:28.479 : en:00:11:28.479
00:13:13.668 : en:00:13:13.668
00:18:43.122 : en:00:18:43.122
00:22:44.863 : en:00:22:44.863
00:26:26.001 : en:00:26:26.001
00:29:59.423 : en:00:29:59.423
00:32:18.895 : en:00:32:18.895
00:36:30.730 : en:00:36:30.730
00:43:07.460 : en:00:43:07.460
00:45:09.415 : en:00:45:09.415
00:50:32.905 : en:00:50:32.905
00:55:49.555 : en:00:55:49.555
00:58:56.158 : en:00:58:56.158
01:01:50.582 : en:01:01:50.582
01:03:04.864 : en:01:03:04.864
01:04:45.381 : en:01:04:45.381
01:11:02.550 : en:01:11:02.550
01:15:26.772 : en:01:15:26.772
01:16:48.437 : en:01:16:48.437
01:21:07.279 : en:01:21:07.279
01:26:42.322 : en:01:26:42.322
01:29:21.022 : en:01:29:21.022
01:32:25.498 : en:01:32:25.498
01:37:21.794 : en:01:37:21.794
01:43:40.131 : en:01:43:40.131
01:46:49.445 : en:01:46:49.445
01:50:16.652 : en:01:50:16.652
01:55:35.011 : en:01:55:35.011

Добавлен 22-01-2018 19:46:22 (50 секунд назад)
Размер 10.81 GB (11604300022 Bytes)  





Добавить комментарий

Ваш e-mail не будет опубликован. Обязательные поля помечены *

*
*