Все любят китов / Big Miracle (2012) BDRip 1080p | Лицензия

Скачать торрент (Doddle Loader)

Зеркало 1 (Media Get)

Информация о фильме
Название: Все любят китов
Оригинальное название: Big Miracle
Год выхода: 2012
Жанр: драма, мелодрама
Режиссер: Кен Куопис
В ролях: Дрю Бэрримор, Джон Красински, Кристен Белл, Роб Риггл, Джон Пингаяк, Ахмагак Суини, Джон Чейз, Измаэль Ангалук Хоуп, Отниэль «Анакулутук» Оомиттук мл., Эндрю Дэйли, Томас Р. Дэйли, Малиак Кайрайуак

О фильме: Любовная искорка вспыхивает между сотрудником некоммерческой гуманитарной организации и государственным служащим, работающими вместе, чтобы спасти трех серых китов, попавших в ловушку подо льдом Антарктического Круга.

Выпущено: США / Великобритания, Universal Pictures
Продолжительность: 01:46:48
Озвучивание: Дублированное (лицензия)

Файл
Формат: MKV(H.264)
Качество: BDRip 1080p
Видео: H.264, 1920 x 800, 23,976 fps, 12.2 Mbps
Аудио #1: Russian: DTS 5.1, 48 kHz, 768 kbps avg |Дубляж, Blu-ray CEE|
Аудио #2: English: DTS 5.1, 48 kHz, 1536 kbps avg
Субтитры: Russian, English
Размер: 11 GB
Скачать: Сэмпл



MediaInfo

General
Unique ID : 173648091039853064246865344938113106041 (0x82A367E49A0192F8B44B3332FB820079)
Complete name : E:Big.Miracle.2012.BDRip.1080p.mkv
Format : Matroska
File size : 11.0 GiB
Duration : 1h 46mn
Overall bit rate : 14.7 Mbps
Movie name : Все любят китов
Encoded date : UTC 2012-06-06 17:01:59
Writing application : mkvmerge v5.1.0 (‘And so it goes’) built on Nov 28 2011 23:58:28
Writing library : libebml v1.2.3 + libmatroska v1.3.0

Video
ID : 1
Format : AVC
Format/Info : Advanced Video Codec
Format profile : [email protected]
Format settings, CABAC : Yes
Format settings, ReFrames : 4 frames
Format settings, GOP : M=3, N=33
Codec ID : V_MPEG4/ISO/AVC
Duration : 1h 46mn
Bit rate : 12.2 Mbps
Width : 1 920 pixels
Height : 800 pixels
Display aspect ratio : 2.40:1
Frame rate : 23.976 fps
Color space : YUV
Chroma subsampling : 4:2:0
Bit depth : 8 bits
Scan type : Progressive
Bits/(Pixel*Frame) : 0.331
Stream size : 9.10 GiB (83%)
Title : Все любят китов
Writing library : x264 core 125 r2200 999b753
Encoding settings : cabac=1 / ref=4 / deblock=1:-3:-3 / analyse=0x3:0x113 / me=umh / subme=10 / psy=1 / psy_rd=1.00:0.00 / mixed_ref=1 / me_range=32 / chroma_me=1 / trellis=2 / 8x8dct=1 / cqm=0 / deadzone=21,11 / fast_pskip=0 / chroma_qp_offset=-2 / threads=18 / lookahead_threads=3 / sliced_threads=0 / nr=0 / decimate=0 / interlaced=0 / bluray_compat=0 / constrained_intra=0 / bframes=8 / b_pyramid=2 / b_adapt=2 / b_bias=0 / direct=3 / weightb=1 / open_gop=0 / weightp=2 / keyint=240 / keyint_min=22 / scenecut=40 / intra_refresh=0 / rc_lookahead=60 / rc=crf / mbtree=0 / crf=18.0 / qcomp=0.60 / qpmin=10 / qpmax=51 / qpstep=4 / vbv_maxrate=50000 / vbv_bufsize=62500 / crf_max=0.0 / nal_hrd=none / ip_ratio=1.40 / pb_ratio=1.30 / aq=1:0.80
Language : English
Matrix coefficients : BT.709-5, BT.1361, IEC 61966-2-4 709, SMPTE RP177

Audio #1
ID : 2
Format : DTS
Format/Info : Digital Theater Systems
Codec ID : A_DTS
Duration : 1h 46mn
Bit rate mode : Constant
Bit rate : 755 Kbps
Channel(s) : 6 channels
Channel positions : Front: L C R, Side: L R, LFE
Sampling rate : 48.0 KHz
Bit depth : 24 bits
Compression mode : Lossy
Stream size : 576 MiB (5%)
Title : DTS — Дубляж (Blu-ray CEE)
Language : Russian

Audio #2
ID : 3
Format : DTS
Format/Info : Digital Theater Systems
Codec ID : A_DTS
Duration : 1h 46mn
Bit rate mode : Constant
Bit rate : 1 510 Kbps
Channel(s) : 6 channels
Channel positions : Front: L C R, Side: L R, LFE
Sampling rate : 48.0 KHz
Bit depth : 24 bits
Compression mode : Lossy
Stream size : 1.13 GiB (10%)
Title : DTS
Language : English

Text #1
ID : 4
Format : UTF-8
Codec ID : S_TEXT/UTF8
Codec ID/Info : UTF-8 Plain Text
Language : Russian

Text #2
ID : 5
Format : UTF-8
Codec ID : S_TEXT/UTF8
Codec ID/Info : UTF-8 Plain Text
Language : English

Menu
00:00:00.000 : en:Chapter 01
00:04:36.985 : en:Chapter 02
00:10:40.181 : en:Chapter 03
00:16:40.541 : en:Chapter 04
00:20:50.374 : en:Chapter 05
00:25:37.160 : en:Chapter 06
00:30:46.636 : en:Chapter 07
00:35:37.218 : en:Chapter 08
00:39:52.056 : en:Chapter 09
00:45:51.373 : en:Chapter 10
00:51:44.100 : en:Chapter 11
00:58:16.367 : en:Chapter 12
01:03:10.536 : en:Chapter 13
01:07:58.532 : en:Chapter 14
01:12:06.864 : en:Chapter 15
01:17:25.223 : en:Chapter 16
01:24:53.505 : en:Chapter 17
01:28:05.613 : en:Chapter 18
01:35:42.737 : en:Chapter 19
01:38:46.378 : en:Chapter 20





Скриншоты


Добавлен 22-01-2018 12:23:33 (5 часов назад)
Размер 11.00 GB (11816175668 Bytes)  





Добавить комментарий

Ваш e-mail не будет опубликован. Обязательные поля помечены *

*
*