Волчья яма / Wolf Creek (2005) BDRip 720p от KinoGadget | iPad | D

Скачать торрент (Doddle Loader)

Зеркало 1 (Media Get)

Год выпуска: 2005
Оригинальное название: Wolf Creek
Страна: Австралия
Жанр: ужасы
Возраст: 18+

Режиссер: Грег МакЛин

В ролях: Джон Джаррэтт, Кассандра Маграт, Кести Морасси, Нэйтан Филлипс, Гай О’Доннелл, Питер Олшин, Гордон Пул, Фил Стивенсон, Тереза Палмер, Эми Шапель, Джефф Ревелл, Энди МакФи, Эрон Стернс, Майкл Муди, Эндрю Реймер, Вики Реймер, Изабелла Реймер, Дэвид Рок, Пол Керран, Рори Уокер, Грег МакЛин

Описание: Трое студентов отправляется в путешествие по Австралии, чтобы найти гигантский кратер, образовавшийся в результате падения метеорита. Это место окутано страшными тайнами и мистическими историями. Наши герои и не могли предположить, что участниками очередной такой мистической истории станут они сами…

Продолжительность: 01:39:00
Перевод: Дублированный
Оригинальная дорожка: нет

Релиз от:

Качество видео: BDRip 720p Исходник: Blu-Ray Remux (1080p) Формат: mp4
Видео кодек: MPEG-4 AVC Аудио кодек: AAC
Видео: 1280×690 (1.85:1) at 24.000 fps, AVC at 4 527 kbps avg, 0.214 bit/pixel
Аудио №1 Rus: 48.0 KHz, AAC, 2 ch, 160.0 Kbps
Субтитры: нет
Навигация по главам: есть
Размер: 3.25 GiB

Log x264

avs (info): 1280x690p 1:1 @ 24/1 fps (cfr)
x264 (info): using SAR=1/1
x264 (info): using cpu capabilities: MMX2 SSE2Fast SSSE3 Cache64
x264 (info): profile High, level 4.1
x264 (info): frame I:908 Avg QP:14.99 size:100578
x264 (info): frame P:29892 Avg QP:18.73 size: 38699
x264 (info): frame B:111784 Avg QP:20.43 size: 18910
x264 (info): consecutive B-frames: 2.0% 2.5% 8.0% 13.3% 10.4% 55.5% 3.3% 1.6% 3.5%
x264 (info): mb I I16..4: 11.6% 73.6% 14.7%
x264 (info): mb P I16..4: 3.1% 18.3% 1.9% P16..4: 39.0% 14.4% 10.7% 0.1% 0.0% skip:12.5%
x264 (info): mb B I16..4: 0.2% 2.6% 0.3% B16..8: 36.6% 9.2% 1.9% direct:10.6% skip:38.7% L0:47.3% L1:44.9% BI: 7.8%
x264 (info): 8×8 transform intra:79.5% inter:71.0%
x264 (info): coded y,uvDC,uvAC intra: 72.6% 79.5% 49.1% inter: 30.3% 33.5% 4.6%
x264 (info): i16 v,h,dc,p: 46% 18% 8% 29%
x264 (info): i8 v,h,dc,ddl,ddr,vr,hd,vl,hu: 16% 14% 28% 5% 8% 7% 8% 7% 7%
x264 (info): i4 v,h,dc,ddl,ddr,vr,hd,vl,hu: 33% 15% 14% 5% 8% 7% 7% 5% 5%
x264 (info): i8c dc,h,v,p: 56% 19% 18% 7%
x264 (info): Weighted P-Frames: Y:6.4% UV:3.9%
x264 (info): ref P L0: 42.1% 7.6% 17.5% 8.5% 7.1% 5.7% 5.0% 3.1% 3.2% 0.3% 0.0%
x264 (info): ref B L0: 71.9% 11.6% 6.4% 3.4% 2.6% 2.2% 1.4% 0.5%
x264 (info): ref B L1: 94.0% 6.0%
x264 (info): kb/s:4527.09
encoded 142584 frames, 2.49 fps, 4527.09 kb/s

MI

General
Complete name : …Volchya_yama_2005_KinoGadget.mp4
Format : MPEG-4
Format profile : Base Media
Codec ID : isom (isom)
File size : 3.25 GiB
Duration : 1 h 39 min
Overall bit rate mode : Variable
Overall bit rate : 4 694 kb/s
Movie name : Волчья яма | KinoGadget
Performer : Грег МакЛин
Director : Грег МакЛин
Actor : Джон Джаррэтт / Кассандра Маграт / Кести Морасси / Нэйтан Филлипс / Гай О’Доннелл / Питер Олшин / Гордон Пул / Фил Стивенсон / Тереза Палмер / Эми Шапель / Джефф Ревелл
Screenplay by : Грег МакЛин
Producer : Джордж Адамс / Мартин Фабиньи / Майкл Гудински
Genre : Horror
ContentType : Short Film
Recorded date : 2005
Encoded date : UTC 2018-01-22 08:09:25
Tagged date : UTC 2018-01-22 08:24:57
Cover : Yes
ContentRating : mpaa|R|400|
LongDeion : Трое студентов отправляется в путешествие по Австралии, чтобы найти гигантский кратер, образовавшийся в результате падения метеорита. Это место окутано страшными тайнами и мистическими историями. Наши герои и не могли предположить, что участниками очередной такой мистической истории станут они сами…
HDVideo : Yes

Video
ID : 1
Format : AVC
Format/Info : Advanced Video Codec
Format profile : [email protected]
Format settings : CABAC / 9 Ref Frames
Format settings, CABAC : Yes
Format settings, ReFrames : 9 frames
Codec ID : avc1
Codec ID/Info : Advanced Video Coding
Duration : 1 h 39 min
Bit rate : 4 527 kb/s
Maximum bit rate : 24.5 Mb/s
Width : 1 280 pixels
Height : 690 pixels
Display aspect ratio : 1.85:1
Frame rate mode : Constant
Frame rate : 24.000 FPS
Color space : YUV
Chroma subsampling : 4:2:0
Bit depth : 8 bits
Scan type : Progressive
Bits/(Pixel*Frame) : 0.214
Stream size : 3.13 GiB (96%)
Writing library : x264 core 152 r2851 ba24899
Encoding settings : cabac=1 / ref=9 / deblock=1:-2:-1 / analyse=0x3:0x133 / me=umh / subme=7 / psy=1 / psy_rd=1.00:0.00 / mixed_ref=1 / me_range=32 / chroma_me=1 / trellis=2 / 8x8dct=1 / cqm=0 / deadzone=21,11 / fast_pskip=0 / chroma_qp_offset=-2 / threads=3 / lookahead_threads=1 / sliced_threads=0 / nr=0 / decimate=1 / interlaced=0 / bluray_compat=0 / constrained_intra=0 / bframes=8 / b_pyramid=2 / b_adapt=2 / b_bias=0 / direct=1 / weightb=1 / open_gop=0 / weightp=2 / keyint=250 / keyint_min=25 / scenecut=40 / intra_refresh=0 / rc_lookahead=60 / rc=crf / mbtree=1 / crf=19.0 / qcomp=0.60 / qpmin=0 / qpmax=69 / qpstep=4 / vbv_maxrate=62500 / vbv_bufsize=78125 / crf_max=0.0 / nal_hrd=none / filler=0 / ip_ratio=1.40 / aq=1:1.00
Encoded date : UTC 2018-01-22 07:23:13
Tagged date : UTC 2018-01-22 08:12:20

Audio
ID : 2
Format : AAC
Format/Info : Advanced Audio Codec
Format profile : LC
Codec ID : mp4a-40-2
Duration : 1 h 38 min
Bit rate mode : Variable
Bit rate : 160 kb/s
Maximum bit rate : 168 kb/s
Channel(s) : 2 channels
Channel positions : Front: L R
Sampling rate : 48.0 kHz
Frame rate : 46.875 FPS (1024 SPF)
Compression mode : Lossy
Stream size : 113 MiB (3%)
Language : mus
Encoded date : UTC 2018-01-22 07:33:41
Tagged date : UTC 2018-01-22 08:12:20

Menu

Скриншоты

Данный рип предназначен для просмотра на мобильных гаджетах с поддержкой формата mp4
Добавлен 22-01-2018 12:11:09 (55 секунд назад)
Размер 3.25 GB (3485837124 Bytes)  





Добавить комментарий

Ваш e-mail не будет опубликован. Обязательные поля помечены *

*
*