Внимание, любовь! / Attention, Love! [01-03 из 15] (2017) HDTVRip 720p | L2

Скачать торрент (Doddle Loader)

Зеркало 1 (Media Get)

Информация о фильме
Название: Внимание, любовь!
Оригинальное название: Attention, Love!
Год выхода: 2017
Жанр: мелодрама, комедия
Режиссер: Хуан Тяньжэнь
В ролях: Ван И Лунь, Го Шу Яо, Хуан Синь Ди, Ван Цзы, Цзэн Чжи Цяо

О фильме:
Мальчику и девочке суждено было быть вместе с рождения. Давным-давно у двух лучших друзей родились дети. Один назвал сына Ли Чжэн, что означает «внимание», а другой назвал дочь Шао Си, что означает «непринужденность». Ли Чжэн был прилежным учеником и уделял внимание всему, чего он хотел достичь в жизни, а Шао Си жила беззаботно и несерьезно относилась к учебе. Ли Чжэн провел детство в Японии. По возвращению на Тайвань он впервые встречается с Шао Си в средней школе. Несмотря на их противоположные личности, судьба сводит их вместе. Смогут ли они адаптироваться друг к другу?

Примечание: добавлена третья серия.


Страна: Китай
Студия: CTV
Продолжительность: ~ 70 мин. серия
Перевод: Любительский, двухголосый, закадровый (XDUB DORAMA, закадровый текст читали: Shizu & Миша Мишин, тайминг: Mayami, работа со звуком: Izanami)

Файл
Кодек: V_MPEG4/ISO/AVC
Качество: HDTVRip 720p
Видео: 1280×720 (16:9), 29.970 FPS, 3072 kb/s
Звук: mp3, 48.0 kHz, 2ch, 320 kb/s
Субтитры: китайские (хардсаб)

Скриншоты

MediaInfo

General
Unique ID : 204544690162960475976638186151521510519 (0x99E1DFD70AAAE6918A885F05BE236477)
Complete name : Attention.Love.EP01.HDTVRip.720p.mkv
Format : Matroska
Format version : Version 2
File size : 1.70 GiB
Duration : 1 h 12 min
Overall bit rate : 3 383 kb/s
Encoded date : UTC 2018-01-06 20:29:36
Writing application : mkvmerge v4.2.0 (‘No Talking’) сборка от Jul 28 2010 18:38:23
Writing library : libebml v1.0.0 + libmatroska v1.0.0

Video
ID : 1
Format : AVC
Format/Info : Advanced Video Codec
Format profile : [email protected]
Format settings, CABAC : Yes
Format settings, RefFrames : 4 frames
Muxing mode : Header stripping
Codec ID : V_MPEG4/ISO/AVC
Duration : 1 h 12 min
Bit rate : 3 072 kb/s
Width : 1 280 pixels
Height : 720 pixels
Display aspect ratio : 16:9
Frame rate mode : Constant
Frame rate : 29.970 (29970/1000) FPS
Color space : YUV
Chroma subsampling : 4:2:0
Bit depth : 8 bits
Scan type : Progressive
Bits/(Pixel*Frame) : 0.111
Stream size : 1.51 GiB (89%)
Writing library : x264 core 148
Encoding settings : cabac=1 / ref=3 / deblock=1:0:0 / analyse=0x3:0x113 / me=hex / subme=7 / psy=1 / psy_rd=1.00:0.00 / mixed_ref=1 / me_range=16 / chroma_me=1 / trellis=1 / 8x8dct=1 / cqm=0 / deadzone=21,11 / fast_pskip=1 / chroma_qp_offset=-2 / threads=6 / lookahead_threads=1 / sliced_threads=0 / nr=0 / decimate=1 / interlaced=0 / bluray_compat=0 / constrained_intra=0 / bframes=3 / b_pyramid=2 / b_adapt=1 / b_bias=0 / direct=1 / weightb=1 / open_gop=0 / weightp=2 / keyint=250 / keyint_min=25 / scenecut=40 / intra_refresh=0 / rc_lookahead=40 / rc=abr / mbtree=1 / bitrate=3072 / ratetol=1.0 / qcomp=0.60 / qpmin=0 / qpmax=69 / qpstep=4 / ip_ratio=1.40 / aq=1:1.00
Default : Yes
Forced : No

Audio
ID : 2
Format : MPEG Audio
Format version : Version 1
Format profile : Layer 3
Mode : Joint stereo
Muxing mode : Header stripping
Codec ID : A_MPEG/L3
Codec ID/Hint : MP3
Duration : 1 h 12 min
Bit rate mode : Constant
Bit rate : 320 kb/s
Channel(s) : 2 channels
Sampling rate : 48.0 kHz
Compression mode : Lossy
Stream size : 165 MiB (9%)
Default : Yes
Forced : No

Релиз от:

Добавлен 21-01-2018 20:01:50 (10 минут назад)
Размер 5.08 GB (5458062380 Bytes)  





Добавить комментарий

Ваш e-mail не будет опубликован. Обязательные поля помечены *

*
*