Видение / Dreamscape (1984) BDRemux 1080р | A

Скачать торрент (Doddle Loader)

Зеркало 1 (Media Get)

Информация о фильме
Название: Видение
Оригинальное название: Dreamscape
Год выхода: 1984
Жанр: ужасы, фантастика, боевик, триллер, приключения
Режиссер: Джозеф Рубин
В ролях: Деннис Куэйд, Макс фон Сюдов, Кристофер Пламмер, Эдди Альберт, Кейт Кэпшоу, Дэвид Патрик Келли, Джордж Уэндт, Ларри Гельман, Кори «Бампер» Йозерс, Редмонд Глисон

Описание: Алекс Гарднер обнаруживает, что физически может проникать в сны других людей, и принимает участие в запутанной политической интриге.

Страна: США
Продолжительность: 01:39:03
Перевод 1: Авторский (одноголосый закадровый) Г. Либергал
Перевод 2: Авторский (одноголосый закадровый) С. Визгунов
Субтитры: английские (full, SDH)
Оригинальная аудиодорожка: английский

Файл
Качество: BDRemux 1080р
Видео: MPEG-4 AVC / 27999 kbps / 1920×1080 / 23,976 fps / 16:9 / High Profile 4.1
Аудио 1: Russian DTS-HD Master Audio / 5.1 / 48 kHz / 2159 kbps / 16-bit (DTS Core: 5.1 / 48 kHz / 1509 kbps / 16-bit) |Г. Либергал|
Аудио 2: Russian DTS-HD Master Audio / 5.1 / 48 kHz / 2158 kbps / 16-bit (DTS Core: 5.1 / 48 kHz / 1509 kbps / 16-bit) |С. Визгунов|
Аудио 3: English DTS-HD Master Audio / 5.1 / 48 kHz / 2268 kbps / 24-bit (DTS Core: 5.1 / 48 kHz / 1509 kbps / 24-bit) |original|
Аудио 4: English DTS-HD Master Audio / 2.0 / 48 kHz / 1571 kbps / 24-bit (DTS Core: 2.0 / 48 kHz / 1509 kbps / 24-bit) |Commentary With Bruce Cohn Curtis, David Loughery And Craig Reardon|

Скриншоты

MediaInfo

Общее
Уникальный идентификатор : 245702245226752382366977113455780491641 (0xB8D887F959BF417C94CFAA5758C4F179)
Полное имя : Видение.1984.Blu-Ray.Remux.(1080p).mkv
Формат : Matroska
Версия формата : Version 4 / Version 2
Размер файла : 24,9 Гбайт
Продолжительность : 1 ч. 39 м.
Режим общего битрейта : Переменный
Общий поток : 36,0 Мбит/сек
Дата кодирования : UTC 2017-05-07 20:36:17
Программа кодирования : mkvmerge v11.0.0 (‘Alive’) 64bit
Библиотека кодирования : libebml v1.3.4 + libmatroska v1.4.5
Attachments : poster.jpg

Видео
Идентификатор : 1
Формат : AVC
Формат/Информация : Advanced Video Codec
Профиль формата : [email protected]
Параметр CABAC формата : Да
Параметр ReFrames формата : 4 кадра
Идентификатор кодека : V_MPEG4/ISO/AVC
Продолжительность : 1 ч. 39 м.
Вид битрейта : Переменный
Битрейт : 27,9 Мбит/сек
Максимальный битрейт : 34,0 Мбит/сек
Ширина : 1920 пикселей
Высота : 1080 пикселей
Соотношение сторон : 16:9
Режим частоты кадров : Постоянный
Частота кадров : 23,976 (24000/1001) кадра/сек
Цветовое пространство : YUV
Субдискретизация насыщенности : 4:2:0
Битовая глубина : 8 бит
Тип развёртки : Прогрессивная
Бит/(Пиксели*Кадры) : 0.561
Размер потока : 19,3 Гбайт (77%)
Default : Да
Forced : Нет

Аудио #1
Идентификатор : 2
Формат : DTS
Формат/Информация : Digital Theater Systems
Профиль формата : MA / Core
Режим : 16
Параметр Endianness формата : Big
Идентификатор кодека : A_DTS
Продолжительность : 1 ч. 39 м.
Вид битрейта : Переменный / Постоянный
Битрейт : 2159 Кбит/сек / 1509 Кбит/сек
Каналы : 6 каналов
Расположение каналов : Front: L C R, Side: L R, LFE
Частота : 48,0 КГц
Частота кадров : 93,750 кадра/сек (512 spf)
Битовая глубина : 16 бит
Метод сжатия : Без потерь / Lossy
Размер потока : 1,49 Гбайт (6%)
Заголовок : Г. Либергал
Язык : Russian
Default : Да
Forced : Нет

Аудио #2
Идентификатор : 3
Формат : DTS
Формат/Информация : Digital Theater Systems
Профиль формата : MA / Core
Режим : 16
Параметр Endianness формата : Big
Идентификатор кодека : A_DTS
Продолжительность : 1 ч. 39 м.
Вид битрейта : Переменный / Постоянный
Битрейт : 2158 Кбит/сек / 1509 Кбит/сек
Каналы : 6 каналов
Расположение каналов : Front: L C R, Side: L R, LFE
Частота : 48,0 КГц
Частота кадров : 93,750 кадра/сек (512 spf)
Битовая глубина : 16 бит
Метод сжатия : Без потерь / Lossy
Размер потока : 1,49 Гбайт (6%)
Заголовок : С. Визгунов
Язык : Russian
Default : Нет
Forced : Нет

Аудио #3
Идентификатор : 4
Формат : DTS
Формат/Информация : Digital Theater Systems
Профиль формата : MA / Core
Режим : 16
Параметр Endianness формата : Big
Идентификатор кодека : A_DTS
Продолжительность : 1 ч. 39 м.
Вид битрейта : Переменный / Постоянный
Битрейт : 2268 Кбит/сек / 1509 Кбит/сек
Каналы : 6 каналов
Расположение каналов : Front: L C R, Side: L R, LFE
Частота : 48,0 КГц
Частота кадров : 93,750 кадра/сек (512 spf)
Битовая глубина : 24 бит
Метод сжатия : Без потерь / Lossy
Размер потока : 1,57 Гбайт (6%)
Язык : English
Default : Нет
Forced : Нет

Аудио #4
Идентификатор : 5
Формат : DTS
Формат/Информация : Digital Theater Systems
Профиль формата : MA / Core
Режим : 16
Параметр Endianness формата : Big
Идентификатор кодека : A_DTS
Продолжительность : 1 ч. 39 м.
Вид битрейта : Переменный / Постоянный
Битрейт : 1571 Кбит/сек / 1509 Кбит/сек
Каналы : 2 канала
Расположение каналов : Front: L R
Частота : 48,0 КГц
Частота кадров : 93,750 кадра/сек (512 spf)
Битовая глубина : 24 бит
Метод сжатия : Без потерь / Lossy
Размер потока : 1,09 Гбайт (4%)
Заголовок : Commentary With Bruce Cohn Curtis, David Loughery And Craig Reardon
Язык : English
Default : Нет
Forced : Нет

Текст #1
Идентификатор : 6
Формат : UTF-8
Идентификатор кодека : S_TEXT/UTF8
Идентификатор кодека/Информация : UTF-8 Plain Text
Продолжительность : 1 ч. 32 м.
Битрейт : 55 бит/сек
ElementCount : 1326
Размер потока : 37,4 Кбайт (0%)
Заголовок : full
Язык : English
Default : Нет
Forced : Нет

Текст #2
Идентификатор : 7
Формат : UTF-8
Идентификатор кодека : S_TEXT/UTF8
Идентификатор кодека/Информация : UTF-8 Plain Text
Продолжительность : 1 ч. 34 м.
Битрейт : 56 бит/сек
ElementCount : 1452
Размер потока : 39,0 Кбайт (0%)
Заголовок : SDH
Язык : English
Default : Нет
Forced : Нет

Меню
00:00:00.000 : en:Main Titles
00:01:51.177 : en:Nightmare
00:06:56.048 : en:Call Me
00:15:43.909 : en:Proficiency
00:24:21.860 : en:Free Reign
00:35:18.249 : en:Presidential Business
00:45:58.722 : en:Babysitter
00:55:09.005 : en:Sweet Dreams
01:06:22.244 : en:Ruthless Killer
01:14:53.255 : en:Clear Intentions
01:22:08.857 : en:Trouble At All
01:35:04.465 : en:End Credits

Добавлен 22-01-2018 12:56:22 (1 минуту назад)
Размер 24.94 GB (26775492353 Bytes)  





Добавить комментарий

Ваш e-mail не будет опубликован. Обязательные поля помечены *

*
*