VA — Disco 80’s vol.1 (2018) FLAC

Скачать торрент (Doddle Loader)

Зеркало 1 (Media Get)

Название: Disco 80’s vol.1
Исполнитель: VA
Год: 2018
Издание: SoundInnovations
Жанр: Italo-Disco, Euro-Disco

Продолжительность: 01:19:11
Формат/Кодек: FLAC
Битрейт аудио: Lossless
Тип рипа: image + .cue

Трек-лист

01. Blue System — My Bed Is Too Big (3:16)
02. Fancy — Bolero (Hold Me in Your Arms Again) (5:38)
03. Den Harrow — Don’t Break My Heart 2001 (Soft Radio Mix) (2:59)
04. Eddy Huntington — U.S.S.R. (5:52)
05. FR. David — Pick Up The Phone (3:08)
06. Jules — I Want To (6:22)
07. Laura Branigan — Self Control (5:00)
08. Miko Mission — Let It Be Love (Original Mix) (6:17)
09. Lucia — Marinero (Swedish Re-Edit) (8:56)
10. Mr. Freaky — Out Of My Mind (12′ Version) (7:15)
11. Mr. Zivago — Little Russian (Vocal 12′ Version) (7:35)
12. Patty Ryan — Stay With Me Tonight (3:20)
13. Raggio Di Luna (Moon Ray) — Comanchero (Special Disco Remix) (8:33)
14. Tony Esposito — Kalimba De Luna (4:58)

Отчёт EAC

Exact Audio Copy V1.3 from 2. September 2016

EAC extraction logfile from 19. January 2018, 21:40

Various / Disco 80’s vol.1

Used drive : PIONEER DVD-RW DVR-212 Adapter: 3 ID: 0

Read mode : Secure
Utilize accurate stream : Yes
Defeat audio cache : Yes
Make use of C2 pointers : No

Read offset correction : 48
Overread into Lead-In and Lead-Out : No
Fill up missing offset samples with silence : Yes
Delete leading and trailing silent blocks : No
Null samples used in CRC calculations : Yes
Used interface : Installed external ASPI interface

Used output format : User Defined Encoder
Selected bitrate : 128 kBit/s
Quality : High
Add ID3 tag : No
Command line compressor : C:Program Files (x86)Exact Audio CopyFLACFLAC.EXE
Additional command line options : -V -8 -T «Date=%year%» -T «Genre=%genre%» -T»COMMENT=Ripped by vinni0809″ -8 -V %source%

TOC of the extracted CD

Track | Start | Length | Start sector | End sector
———————————————————
1 | 0:00.00 | 3:16.25 | 0 | 14724
2 | 3:16.25 | 5:37.51 | 14725 | 40050
3 | 8:54.01 | 2:58.64 | 40051 | 53464
4 | 11:52.65 | 5:51.72 | 53465 | 79861
5 | 17:44.62 | 3:08.19 | 79862 | 93980
6 | 20:53.06 | 6:21.49 | 93981 | 122604
7 | 27:14.55 | 5:00.09 | 122605 | 145113
8 | 32:14.64 | 6:16.39 | 145114 | 173352
9 | 38:31.28 | 8:56.00 | 173353 | 213552
10 | 47:27.28 | 7:15.00 | 213553 | 246177
11 | 54:42.28 | 7:35.00 | 246178 | 280302
12 | 62:17.28 | 3:19.51 | 280303 | 295278
13 | 65:37.04 | 8:32.54 | 295279 | 333732
14 | 74:09.58 | 4:58.12 | 333733 | 356094

Range status and errors

Selected range

Filename F:vinni0809Various — Disco 80’s vol.1.wav

Peak level 100.0 %
Extraction speed 3.3 X
Range quality 99.9 %
Test CRC 8F77F5C5
Copy CRC 8F77F5C5
Copy OK

No errors occurred

AccurateRip summary

Track 1 not present in database
Track 2 not present in database
Track 3 not present in database
Track 4 not present in database
Track 5 not present in database
Track 6 not present in database
Track 7 not present in database
Track 8 not present in database
Track 9 not present in database
Track 10 not present in database
Track 11 not present in database
Track 12 not present in database
Track 13 not present in database
Track 14 not present in database

None of the tracks are present in the AccurateRip database

End of status report

—- CUETools DB Plugin V2.1.6

(CTDB TOCID: IHyjKYQbO0mivXH.pYpL.FhMLcQ-) disk not present in database
Submit result: IHyjKYQbO0mivXH.pYpL.FhMLcQ- has been uploaded

==== Log checksum 6A33DA2981F398FDACB994C973C05D7CFBBDB81EB67D516283A16DF8E2240168 ====

Добавлен 21-01-2018 16:52:21 (4 часа назад)
Размер 546.20 MB (572735085 Bytes)  





Добавить комментарий

Ваш e-mail не будет опубликован. Обязательные поля помечены *

*
*