Убить за лайк / Tragedy Girls (2017) WEB-DL 720p | iTunes

Скачать торрент (Doddle Loader)

Зеркало 1 (Media Get)

Информация о фильме
Название: Убить за лайк
Оригинальное название: Tragedy Girls
Год выхода: 2017
Жанр: ужасы, комедия
Режиссер: Тайлер МакИнтайр
В ролях: Александра Шипп, Брианна Хилдебранд, Кевин Дюран, Джек Куэйд, Крэйг Робинсон, Джош Хатчерсон, Никки Уилан и др.

О фильме:
Две подружки-старшеклассницы одержимы мечтой стать звездами социальных сетей. Но, как известно, хорошими делами прославиться нельзя. Поэтому они заводят блог «Кошмарные девчонки», в котором смачно комментируют трагедии и несчастные случаи, происходящие в их городке. Количество подписчиков растет, но для новых лайков требуются новые кровавые репортажи. Амбициозные девушки, ощущая острую нехватку материала, принимаются убивать всех, кто мешает им по жизни, совмещая «приятное» с «полезным»…

Страна: США
Продолжительность: 01:38:12
Перевод: Профессиональный (полное дублирование) (iTunes)

Файл
Кодек: х.264
Качество: WEB-DL 720p
Видео: 1280×534 (2.35:1), 23.976 fps, AVC MPEG-4 (х.264), [email protected] ~3924 kbps, 0.239 bit/pixel
Звук: 48 kHz, AC3 Dolby Digital, 3/2 (L,C,R,l,r) + LFE ch, ~384 kbps

Реклама отсутствует.

MediaInfo

General
Unique ID : 248418855284872252220454021872249562017 (0xBAE3BB30DD2690DC9728B7D5472163A1)
Complete name : E:Tragedy Girls.2017_Klayd X.mkv
Format : Matroska
File size : 3.01 GiB
Duration : 1h 38mn
Overall bit rate : 4 395 Kbps
Encoded date : UTC 2018-01-04 21:50:58
Writing application : mkvmerge v8.3.0 (‘Over the Horizon’) 64bit
Writing library : libebml v1.3.1 + libmatroska v1.4.2

Video
ID : 1
Format : AVC
Format/Info : Advanced Video Codec
Format profile : [email protected]
Format settings, CABAC : No
Format settings, ReFrames : 2 frames
Codec ID : V_MPEG4/ISO/AVC
Duration : 1h 38mn
Bit rate : 3 924 Kbps
Width : 1 280 pixels
Height : 534 pixels
Display aspect ratio : 2.35:1
Frame rate : 24.000 fps
Color space : YUV
Chroma subsampling : 4:2:0
Bit depth : 8 bits
Scan type : Progressive
Bits/(Pixel*Frame) : 0.239
Stream size : 2.69 GiB (89%)
Language : English
Color primaries : BT.709-5, BT.1361, IEC 61966-2-4, SMPTE RP177
Transfer characteristics : BT.709-5, BT.1361
Matrix coefficients : BT.709-5, BT.1361, IEC 61966-2-4 709, SMPTE RP177

Audio
ID : 2
Format : AC-3
Format/Info : Audio Coding 3
Mode extension : CM (complete main)
Codec ID : A_AC3
Duration : 1h 38mn
Bit rate mode : Constant
Bit rate : 384 Kbps
Channel(s) : 6 channels
Channel positions : Front: L C R, Side: L R, LFE
Sampling rate : 48.0 KHz
Bit depth : 16 bits
Compression mode : Lossy
Stream size : 270 MiB (9%)
Language : Russian

Menu
00:00:00.000 : en:Глава 1
00:04:01.708 : en:Глава 2
00:08:59.124 : en:Глава 3
00:15:19.915 : en:Глава 4
00:19:53.831 : en:Глава 5
00:26:27.122 : en:Глава 6
00:32:56.913 : en:Глава 7
00:38:53.704 : en:Глава 8
00:43:38.995 : en:Глава 9
00:49:49.661 : en:Глава 10
00:55:57.786 : en:Глава 11
01:01:45.369 : en:Глава 12
01:08:23.119 : en:Глава 13
01:12:57.202 : en:Глава 14
01:19:46.743 : en:Глава 15
01:25:46.534 : en:Глава 16

Скриншоты

Добавлен 22-01-2018 19:38:01 (9 секунд назад)
Размер 3.01 GB (3237299289 Bytes)  





Добавить комментарий

Ваш e-mail не будет опубликован. Обязательные поля помечены *

*
*