Субурбикон / Suburbicon (2017) WEB-DL 1080p от ExKinoRay | iTunes

Скачать торрент (Doddle Loader)

Зеркало 1 (Media Get)

Информация о фильме
Название: Субурбикон
Оригинальное название: Suburbicon
Год выхода: 2017
Жанр: Триллер, драма, криминал, детектив
Режиссер: Джордж Клуни
В ролях: Мэтт Дэймон, Джулианна Мур, Оскар Айзек, Ноа Джуп, Гленн Флешлер, Меган Фергюсон, Джек Конли, Гэри Басараба, Майкл Коэн, Стив Монро

О фильме:
Добро пожаловать в солнечный Субурбикон! В прекрасный тихий городок в самом сердце Америки. Счастливые семьи. Недорогие миленькие дома. Ухоженные газоны. Воплощение американской мечты. Чудесную жизнь городка внезапно прерывает шокирующее, из ряда вон выходящее событие — образцовая семья переживает вторжение в их семейное гнёздышко. Это событие толкает на худшие поступки в их идиллической жизни — шантаж, месть и предательство.

Страна: Великобритания, США
Студия: Black Bear Pictures
Продолжительность: 01:44:10
Перевод: Дублированный | iTunes

Файл
Качество: WEB-DL 1080p
Видео: MPEG-4 AVC, 1920×804, 4606 Kbit/s, 24.000 fps
Звук: 48 kHz, AC3, 5.1, 384 Kbps | Дублированный | iTunes | RUS |

MI

General
Unique ID : 60211228352318605613974841151053062579 (0x2D4C42C1A3C121A53D0A9637998761B3)
Complete name : G:VideoSSDSuburbicon.2017.WEB-DL.1080p.ExKinoRay.mkv
Format : Matroska
Format version : Version 4 / Version 2
File size : 3.63 GiB
Duration : 1 h 44 min
Overall bit rate : 4 992 kb/s
Movie name : Suburbicon 2017 from ExKinoRay
Encoded date : UTC 2018-01-22 19:20:42
Writing application : mkvmerge v20.0.0 (‘I Am The Sun’) 64-bit
Writing library : libebml v1.3.5 + libmatroska v1.4.8

Video
ID : 1
Format : AVC
Format/Info : Advanced Video Codec
Format profile : [email protected]
Format settings : CABAC / 5 Ref Frames
Format settings, CABAC : Yes
Format settings, ReFrames : 5 frames
Codec ID : V_MPEG4/ISO/AVC
Duration : 1 h 44 min
Bit rate : 4 606 kb/s
Width : 1 920 pixels
Height : 804 pixels
Display aspect ratio : 2.40:1
Frame rate mode : Constant
Frame rate : 24.000 FPS
Color space : YUV
Chroma subsampling : 4:2:0
Bit depth : 8 bits
Scan type : Progressive
Bits/(Pixel*Frame) : 0.124
Stream size : 3.35 GiB (92%)
Language : English
Default : Yes
Forced : No
Color range : Limited
Color primaries : BT.709
Transfer characteristics : BT.709
Matrix coefficients : BT.709

Audio
ID : 2
Format : AC-3
Format/Info : Audio Coding 3
Codec ID : A_AC3
Duration : 1 h 44 min
Bit rate mode : Constant
Bit rate : 384 kb/s
Channel(s) : 6 channels
Channel positions : Front: L C R, Side: L R, LFE
Sampling rate : 48.0 kHz
Frame rate : 31.250 FPS (1536 SPF)
Bit depth : 16 bits
Compression mode : Lossy
Delay relative to video : -42 ms
Stream size : 286 MiB (8%)
Title : iTunes
Language : Russian
Service kind : Complete Main
Default : Yes
Forced : No

Menu
00:00:00.000 : en:Глава 1
00:06:24.208 : en:Глава 2
00:11:28.124 : en:Глава 3
00:18:03.707 : en:Глава 4
00:23:21.997 : en:Глава 5
00:29:11.080 : en:Глава 6
00:34:57.705 : en:Глава 7
00:41:44.038 : en:Глава 8
00:48:28.579 : en:Глава 9
00:56:09.995 : en:Глава 10
01:00:47.286 : en:Глава 11
01:07:32.744 : en:Глава 12
01:13:46.660 : en:Глава 13
01:18:53.035 : en:Глава 14
01:24:56.076 : en:Глава 15
01:33:19.201 : en:Глава 16

Релиз от: Автор релиза:
Подпишись на меня, кликни по картинке > :

Добавлен 22-01-2018 22:25:44 (28 секунд назад)
Размер 3.63 GB (3900656576 Bytes)  





Добавить комментарий

Ваш e-mail не будет опубликован. Обязательные поля помечены *

*
*