Стюарт Литтл 2 / Stuart Little 2 (2002) BDRip-AVC от SuperMin | D

Скачать торрент (Doddle Loader)

Зеркало 1 (Media Get)

Информация о фильме
Название: Стюарт Литтл 2
Оригинальное название: Stuart Little 2
Жанр: Фэнтези, комедия, приключения, семейный
Режиссер: Роб Минкофф
В ролях: Майкл Дж. Фокс, Джина Дэвис, Хью Лори, Джонатан Липники, Анна Хельк, Эшли Хельк, Натан Лейн, Мелани Гриффит, Джеймс Вудс, Стив Зан

О фильме:
Стюарт теперь учится в школе, строит модели самолетов и играет в футбольной команде. Но все меняется, когда судьба сводит его с канарейкой по имени Маргало. Они становятся друзьями, и птица рассказывает Стюарту о злобном Соколе, который терроризирует ее. И вдруг вскоре после этого Маргало исчезает. Стюарт и кот Снежок отправляются на отчаянные поиски своего нового друга через весь Нью-Йорк.

Страна: США
Студия: Columbia Pictures
Продолжительность: 01:17:42
Перевод: Дубляж

Файл
Кодек: H.264
Качество: BDRip-AVC от SuperMin
Видео: 1056х568 (1.85:1), 3134 Kbps, 23.976 fps
Звук: Русский (AC-3, 6ch, 448 kbps)
Субтитры: Русские, английские

Лог&MI

x264 (info): frame I:1013 Avg QP:18.71 size:133967
x264 (info): frame P:30824 Avg QP:20.10 size: 38447
x264 (info): frame B:79955 Avg QP:22.95 size: 6325
x264 (info): consecutive B-frames: 4.6% 6.2% 24.7% 17.2% 15.2% 28.0% 3.1% 0.6% 0.5%
x264 (total): encoded 111792 frames, 2.08 fps, 3133.80 kb/s

General
Unique ID : 231906817524358588711724388596011630075 (0xAE77A0DFFCAE2680A3112D6C94D9FDFB)
Complete name : G:МУЛЬТЫСТЮАРТ ЛИТТЛ—Стюарт Литтл-2.2002.x264.BDRip-AVC.mkv
Format : Matroska
Format version : Version 4 / Version 2
File size : 1.95 GiB
Duration : 1 h 17 min
Overall bit rate : 3 584 kb/s
Movie name : Стюарт Литтл 2 / Stuart Little 2 (2002) — #LORDKILL#
Encoded date : UTC 2017-10-26 10:08:40
Writing application : mkvmerge v9.5.0 (‘Quiet Fire’) 64bit
Writing library : libebml v1.3.4 + libmatroska v1.4.5

Video
ID : 1
Format : AVC
Format/Info : Advanced Video Codec
Format profile : [email protected]
Format settings, CABAC : Yes
Format settings, ReFrames : 11 frames
Codec ID : V_MPEG4/ISO/AVC
Duration : 1 h 17 min
Bit rate : 3 134 kb/s
Width : 1 056 pixels
Height : 568 pixels
Display aspect ratio : 1.85:1
Frame rate mode : Constant
Frame rate : 23.976 (24000/1001) FPS
Color space : YUV
Chroma subsampling : 4:2:0
Bit depth : 8 bits
Scan type : Progressive
Bits/(Pixel*Frame) : 0.218
Stream size : 1.70 GiB (87%)
Writing library : x264 core 146 r2538 121396c
Encoding settings : cabac=1 / ref=11 / deblock=1:-3:-3 / analyse=0x3:0x113 / me=umh / subme=11 / psy=1 / psy_rd=1.00:0.10 / mixed_ref=1 / me_range=64 / chroma_me=1 / trellis=2 / 8x8dct=1 / cqm=0 / deadzone=21,11 / fast_pskip=0 / chroma_qp_offset=-3 / threads=12 / lookahead_threads=2 / sliced_threads=0 / nr=0 / decimate=1 / interlaced=0 / bluray_compat=0 / constrained_intra=0 / bframes=8 / b_pyramid=2 / b_adapt=2 / b_bias=0 / direct=1 / weightb=1 / open_gop=0 / weightp=2 / keyint=240 / keyint_min=23 / scenecut=40 / intra_refresh=0 / rc=crf / mbtree=0 / crf=19.5 / qcomp=0.60 / qpmin=0 / qpmax=69 / qpstep=4 / ip_ratio=1.40 / pb_ratio=1.30 / aq=1:1.00
Language : English
Default : Yes
Forced : No

Audio
ID : 2
Format : AC-3
Format/Info : Audio Coding 3
Mode extension : CM (complete main)
Format settings, Endianness : Big
Codec ID : A_AC3
Duration : 1 h 17 min
Bit rate mode : Constant
Bit rate : 448 kb/s
Channel(s) : 6 channels
Channel positions : Front: L C R, Side: L R, LFE
Sampling rate : 48.0 kHz
Frame rate : 31.250 FPS (1536 spf)
Bit depth : 16 bits
Compression mode : Lossy
Stream size : 249 MiB (13%)
Title : Дубляж
Language : Russian
Default : Yes
Forced : No

Text #1
ID : 3
Format : UTF-8
Codec ID : S_TEXT/UTF8
Codec ID/Info : UTF-8 Plain Text
Duration : 1 h 7 min
Bit rate : 109 b/s
Count of elements : 909
Stream size : 54.1 KiB (0%)
Language : Russian
Default : Yes
Forced : No

Text #2
ID : 4
Format : UTF-8
Codec ID : S_TEXT/UTF8
Codec ID/Info : UTF-8 Plain Text
Duration : 1 h 8 min
Bit rate : 67 b/s
Count of elements : 1145
Stream size : 33.8 KiB (0%)
Title : SDH
Language : English
Default : No
Forced : No

Menu
00:00:00.000 : en:00:00:00.000
00:04:58.131 : en:00:04:58.131
00:09:07.213 : en:00:09:07.213
00:15:24.173 : en:00:15:24.173
00:18:56.761 : en:00:18:56.761
00:23:42.880 : en:00:23:42.880
00:26:47.731 : en:00:26:47.731
00:30:48.680 : en:00:30:48.680
00:33:56.159 : en:00:33:56.159
00:36:16.049 : en:00:36:16.049
00:43:06.000 : en:00:43:06.000
00:49:18.330 : en:00:49:18.330
00:54:57.711 : en:00:54:57.711
00:59:24.644 : en:00:59:24.644
01:03:46.656 : en:01:03:46.656
01:07:47.480 : en:01:07:47.480

Скриншоты

Добавлен 22-01-2018 21:32:55 (3 минуты назад)
Размер 1.95 GB (2088775877 Bytes)  





Добавить комментарий

Ваш e-mail не будет опубликован. Обязательные поля помечены *

*
*