Столкновение с бездной / Deep Impact (1998) WEB-DLRip-AVC | D | Open Matte

Скачать торрент (Doddle Loader)

Зеркало 1 (Media Get)

Информация о фильме
Название: Столкновение с бездной
Оригинальное название: Deep Impact
Год выпуска: 1998
Жанр: фантастика, боевик, триллер, драма, мелодрама
Режиссер: Мими Ледер
В ролях: Роберт Дювалл (Spurgeon Tanner), Теа Леони (Jenny Lerner), Элайджа Вуд (Leo Biederman), Ванесса Редгрейв (Robin Lerner), Морган Фриман (President Beck), Максимилиан Шелл (Jason Lerner), Джеймс Кромуэлл (Alan Rittenhouse), Рон Элдард (Oren Monash), Джон Фавро (Gus Partenza), Лора Иннес (Beth Stanley), Мэри МакКормак (Andrea Baker), Ричард Шифф (Don Biederman)

О фильме:
Земле грозит неизбежное столкновением с кометой, что приведет к гибели всего живого. Президент США сообщает миру, что до «столкновения с бездной» остается год. На комету отправляют корабль «Мессия» который должен взорвать комету. Но от взрыва комета разлетается на две части. Ничто не может спасти человечество. Как поведут себя люди?…

Страна: США
Студия: DreamWorks SKG, Manhattan Project, Paramount Pictures, Zanuck/Brown Productions
Продолжительность: 02:01:19
Перевод: Профессиональный |Дубляж, Новый диск|

Файл
Качество: WEB-DLRip-AVC | Open Matte
Формат: Matroska
Видео: 1024×576 at 23.976 fps, [email protected], ~2185 kbps
Аудио: 48 kHz, AC3, 3/2 (L,C,R,l,r) + LFE ch, ~384 kbps
Субтитры: Russian, English

M/I

General
Unique ID : 238502050679377318680612526699207730744 (0xB36DD2F9893894AE49C81482BF182638)
Complete name : F:FILMSСтолкновение с бездной.1998.Open.Matte.WEB_DLRIP-AVC.(-=DoMiNo=-).mkv
Format : Matroska
Format version : Version 4 / Version 2
File size : 2.18 GiB
Duration : 2 h 1 min
Overall bit rate : 2 572 kb/s
Movie name : Столкновение с бездной
Deion : Земле грозит неизбежное столкновением с кометой, что приведет к гибели всего живого. Президент США сообщает миру, что до «столкновения с бездной» остается год. На комету отправляют корабль «Мессия» который должен взорвать комету. Но от взрыва комета разлетается на две части. Ничто не может спасти человечество. Как поведут себя люди?…
Writing application : XviD4PSP 7.0.439 DAILY
Writing library : Lavf57.71.100
ErrorDetectionType : Per level 1
Attachments : poster.jpg
COMPOSER : Джеймс Хорнер
COUNTRY : США
DATE : 1998
DIRECTOR : Мими Ледер
GENRE : фантастика, боевик, триллер, драма, мелодрама
HD_VIDEO : 1
IMDB_RATING : 6.10
ITUNEXTC : mpaa|PG-13|300|
Language : und
MEDIA_TYPE : 9
ORIGINAL_TITLE : Deep Impact
PRODUCER : Дэвид Браун, Ричард Д. Занук, Джоан Брэдшоу, Д. Скотт Истон, Уолтер Ф. Паркс, Стивен Спилберг
RATING : 7.062
WRITER : Брюс Джоэл Рубин, Майкл Толкин

Video
ID : 1
Format : AVC
Format/Info : Advanced Video Codec
Format profile : [email protected]
Format settings : CABAC / 10 Ref Frames
Format settings, CABAC : Yes
Format settings, ReFrames : 10 frames
Codec ID : V_MPEG4/ISO/AVC
Duration : 2 h 1 min
Bit rate : 2 185 kb/s
Width : 1 024 pixels
Height : 576 pixels
Display aspect ratio : 16:9
Frame rate mode : Constant
Frame rate : 23.976 (24000/1001) FPS
Color space : YUV
Chroma subsampling : 4:2:0
Bit depth : 8 bits
Scan type : Progressive
Bits/(Pixel*Frame) : 0.155
Stream size : 1.81 GiB (83%)
Title : RIP_BY_-=DoMiNo=-
Writing library : x264 core 155 r2893M b00bcaf
Encoding settings : cabac=1 / ref=10 / deblock=1:-3:-3 / analyse=0x3:0x133 / me=umh / subme=10 / psy=1 / psy_rd=1.00:0.05 / mixed_ref=1 / me_range=32 / chroma_me=1 / trellis=2 / 8x8dct=1 / cqm=0 / deadzone=21,11 / fast_pskip=1 / chroma_qp_offset=-3 / threads=6 / lookahead_threads=1 / sliced_threads=0 / nr=0 / decimate=1 / interlaced=0 / bluray_compat=0 / constrained_intra=0 / bframes=9 / b_pyramid=2 / b_adapt=2 / b_bias=0 / direct=3 / weightb=1 / open_gop=0 / weightp=2 / keyint=240 / keyint_min=24 / scenecut=40 / intra_refresh=0 / rc_lookahead=60 / rc=2pass / mbtree=1 / bitrate=2185 / ratetol=1.0 / qcomp=0.60 / qpmin=0 / qpmax=69 / qpstep=4 / cplxblur=20.0 / qblur=0.5 / ip_ratio=1.40 / aq=1:1.00
Default : Yes
Forced : No
Color range : Limited
Color primaries : BT.709
Transfer characteristics : BT.709
Matrix coefficients : BT.709

Audio
ID : 2
Format : AC-3
Format/Info : Audio Coding 3
Codec ID : A_AC3
Duration : 2 h 1 min
Bit rate mode : Constant
Bit rate : 384 kb/s
Channel(s) : 6 channels
Channel positions : Front: L C R, Side: L R, LFE
Sampling rate : 48.0 kHz
Frame rate : 31.250 FPS (1536 SPF)
Bit depth : 16 bits
Compression mode : Lossy
Stream size : 333 MiB (15%)
Title : DUB — Новый диск
Language : Russian
Service kind : Complete Main
Default : Yes
Forced : Yes

Text #1
ID : 3
Format : UTF-8
Codec ID : S_TEXT/UTF8
Codec ID/Info : UTF-8 Plain Text
Title : Russian Full
Language : Russian
Default : Yes
Forced : No

Text #2
ID : 4
Format : UTF-8
Codec ID : S_TEXT/UTF8
Codec ID/Info : UTF-8 Plain Text
Title : English Full
Language : English
Default : No
Forced : No

Скриншоты

Добавлен 21-01-2018 15:21:58 (38 секунд назад)
Размер 2.18 GB (2340648393 Bytes)  





Добавить комментарий

Ваш e-mail не будет опубликован. Обязательные поля помечены *

*
*