Стань легендой! Бигфут Младший / The Son of Bigfoot (2017) BDRip-AVC от ExKinoRay | Rus Transfer | Лицензия

Скачать торрент (Doddle Loader)

Зеркало 1 (Media Get)

Информация о фильме
Название: Стань легендой! Бигфут Младший
Оригинальное название: The Son of Bigfoot
Год выпуска: 2017
Жанр: Мультфильм, комедия, семейный
Режиссер: Жереми Дегрусон, Бен Стассен
В ролях: Синда Адамс, Боб Барлен, Кэллан Брункер, Джои Камен, Дэвид Эпштейн, Кристофер Л. Парсон, Джо Томас

Описание:
Обычный подросток по имени Адам отправляется на поиски своего давно пропавшего отца и попадает в приключение мифических масштабов. Его мир переворачивается вверх дном, когда оказывается, что в нем течет кровь последних легендарных хранителей леса — бигфутов. Теперь ему открыты такие способности как суперскорость, живительное прикосновение и возможность понимать язык животных.

Страна: Франция, Бельгия
Студия: Belga Productions, Illuminata Pictures, nWave Pictures, Studio Canal, Waterman Entertainment
Продолжительность: 01:31:15
Перевод: Дублированный | Лицензия BD RUS

Файл
Контейнер: MKV
Качество: BDRip-AVC
Видео: AVC, 1024×428 (2.40:1), 24.000 fps, 2203 Kbps, 0.209 bit/pixel
Аудио 1: AC-3, 48.0 KHz, 5.1 ch, 448 Kbps, CBR (Russian)
Аудио 2: AC-3, 48.0 KHz, 5.1 ch, 448 Kbps, CBR (ENG)

MI

General
Unique ID : 174404200864072137407857715262747383233 (0x833506FC49A4781890D5C60E3E1915C1)
Complete name : D:The.Son.of.Bigfoot.2017.D.BDRip.AVC.ExKinoRay.mkv
Format : Matroska
Format version : Version 2
File size : 1.98 GiB
Duration : 1 h 31 min
Overall bit rate : 3 099 kb/s
Movie name : The Son of Bigfoot (2017) from ExKinoRay
Encoded date : UTC 2018-01-22 05:22:02
Writing application : mkvmerge v5.6.0 (‘Kenya Kane’) built on May 27 2012 16:44:04
Writing library : libebml v1.2.3 + libmatroska v1.3.0

Video
ID : 1
Format : AVC
Format/Info : Advanced Video Codec
Format profile : [email protected]
Format settings, CABAC : Yes
Format settings, ReFrames : 10 frames
Codec ID : V_MPEG4/ISO/AVC
Duration : 1 h 31 min
Bit rate : 2 203 kb/s
Width : 1 024 pixels
Height : 428 pixels
Display aspect ratio : 2.40:1
Frame rate mode : Constant
Frame rate : 24.000 FPS
Color space : YUV
Chroma subsampling : 4:2:0
Bit depth : 8 bits
Scan type : Progressive
Bits/(Pixel*Frame) : 0.209
Stream size : 1.37 GiB (69%)
Title : Enigma
Writing library : x264 core 152 r2851 ba24899
Encoding settings : cabac=1 / ref=10 / deblock=1:-2:-2 / analyse=0x3:0x133 / me=umh / subme=11 / psy=1 / psy_rd=1.00:0.05 / mixed_ref=1 / me_range=32 / chroma_me=1 / trellis=2 / 8x8dct=1 / cqm=0 / deadzone=21,11 / fast_pskip=0 / chroma_qp_offset=-3 / threads=12 / lookahead_threads=3 / sliced_threads=0 / nr=0 / decimate=0 / interlaced=0 / bluray_compat=0 / constrained_intra=0 / bframes=11 / b_pyramid=2 / b_adapt=2 / b_bias=0 / direct=3 / weightb=1 / open_gop=0 / weightp=2 / keyint=240 / keyint_min=24 / scenecut=40 / intra_refresh=0 / rc_lookahead=40 / rc=2pass / mbtree=0 / bitrate=2203 / ratetol=1.0 / qcomp=0.60 / qpmin=0 / qpmax=51 / qpstep=4 / cplxblur=20.0 / qblur=0.5 / vbv_maxrate=50000 / vbv_bufsize=62500 / nal_hrd=none / filler=0 / ip_ratio=1.40 / pb_ratio=1.30 / aq=1:0.90
Language : English
Default : Yes
Forced : No
Color range : Limited
Color primaries : BT.709
Transfer characteristics : BT.709
Matrix coefficients : BT.709

Audio #1
ID : 2
Format : AC-3
Format/Info : Audio Coding 3
Mode extension : CM (complete main)
Format settings, Endianness : Big
Codec ID : A_AC3
Duration : 1 h 31 min
Bit rate mode : Constant
Bit rate : 448 kb/s
Channel(s) : 6 channels
Channel positions : Front: L C R, Side: L R, LFE
Sampling rate : 48.0 kHz
Frame rate : 31.250 FPS (1536 spf)
Compression mode : Lossy
Stream size : 292 MiB (14%)
Title : Dub (Blu-Ray)
Language : Russian
Default : Yes
Forced : No

Audio #2
ID : 3
Format : AC-3
Format/Info : Audio Coding 3
Mode extension : CM (complete main)
Format settings, Endianness : Big
Codec ID : A_AC3
Duration : 1 h 31 min
Bit rate mode : Constant
Bit rate : 448 kb/s
Channel(s) : 6 channels
Channel positions : Front: L C R, Side: L R, LFE
Sampling rate : 48.0 kHz
Frame rate : 31.250 FPS (1536 spf)
Compression mode : Lossy
Stream size : 292 MiB (14%)
Language : English
Default : No
Forced : No

Menu
00:00:00.000 : en:Chapter 01
00:00:25.708 : en:Chapter 02
00:09:52.250 : en:Chapter 03
00:20:05.625 : en:Chapter 04
00:31:35.750 : en:Chapter 05
00:42:31.458 : en:Chapter 06
00:55:00.166 : en:Chapter 07
01:03:24.041 : en:Chapter 08
01:16:09.833 : en:Chapter 09

Релиз от:

Автор релиза:

Добавлен 22-01-2018 9:08:52 (3 секунды назад)
Размер 1.98 GB (2121176164 Bytes)  





Добавить комментарий

Ваш e-mail не будет опубликован. Обязательные поля помечены *

*
*