Стань легендой! Бигфут Младший / The Son of Bigfoot (2017) BDRip 1080p | 3D-Video | halfOU | Лицензия

Скачать торрент (Doddle Loader)

Зеркало 1 (Media Get)


Стань легендой! Бигфут Младший
Bigfoot Junior
The Son of Bigfoot


Год выпуска: 2017
Страна: Франция, Бельгия (StudioCanal, nWave Pictures, Belga Films)
Жанр: Мультфильм, Фэнтези, Комедия, Семейный
Продолжительность: 01:31:46

Перевод: Профессиональный дублированный (лицензия)

Режиссеры: Жереми Дегрусон / Jeremy Degruson, Бен Стассен / Ben StassenШевели ластами» 1 и 2, «Кот Гром и заколдованный дом«, «Робинзон Крузо: Очень обитаемый остров«, …)


Роли озвучивали (на английском): Синда Адамс (Secretary / Waitress), Джордж Бэббит (Truck Driver), Лайла Берзиньш (Weecha / 911 Operator), Джои Камен (Principal Jones), Джефф Дусетте (Fat Dan / Tim / Tech Support Operator), Дэвид Эпштейн (Charlie), Паппи Фолкнер (Adam), Сэнди Фокс (Tina), Кайл Хеберт (Simpson), Мариев Херингтон (Shelly), Алексис Лэнг (Japanese Man #3), Юрий Ловенталь (Tony / Japanese Man #2), Джо Охман (Trapper / Tom), Кристофер Л. Парсон (Bigfoot / Guard at Desk), Тара Платт (Katrina), Майкл Сорич (Wilbur), Терренс Стоун (Wallace Eastman), Джо Томас (Steve / PA System)

Дублировали: Семён Трескунов, Артур Смольянинов, Дарья Мельникова, Василий Дахненко, Владимир Скворцов, Сергей Чихачёв, Андрей Казанцев, Илья Барабанов, Денис Некрасов, Наталья Сапецкая, Алла Фомичёва, Дмитрий Череватенко, Сергей Шайдаков, Александр Вартанов


Описание: Обычный подросток по имени Адам отправляется на поиски своего давно пропавшего отца и попадает в приключение мифических масштабов. Его мир переворачивается вверх дном, когда оказывается, что в нем течет кровь последних легендарных хранителей леса — бигфутов. Теперь ему открыты такие способности как суперскорость, живительное прикосновение и возможность понимать язык животных.


Доп. инфо: 3Д глубокое, с вылетами, как обычно у Бена Стассена.


Премьера: 26 июля 2017
Бюджет: $30 000 000


За исходный BD 3D спасибо


Качество: BDRip (by Ash61) (с BD 3D Ger)
Контейнер: MKV
Формат 3D: Half OverUnder / Вертикальная анаморфная стереопара
Порядок ракурсов: левый ракурс первый


Видео: AVC / 1920х1080p / 23,976 fps / 10.0 Mbps

Аудио:
#1 — Русский / AC3 / 48 KHz / 5.1 ch / 640 Kbps (Дубляж — BD Rus)
#2 — Украинский / AC3 / 48 KHz / 2 ch / 192 Kbps (Дубляж — Line) (моно) (Спасибо Hurtom!)
#3 — Английский / AC3 / 48 KHz / 5.1 ch / 640 Kbps (Original — BD 3D)

Субтитры (внешние SRT UTF-8):
#1English Full
#2English SDH

MediaInfo

General
Unique ID : 20891973420383666765132869654542192572 (0xFB7A5D1073288C38ACB9FB3517E8FBC)
Complete name : D:TheSonOfBigfoot(2017)3D-halfOU(Ash61)TheSonOfBigfoot(2017)3D-halfOU(Ash61).mkv
Format : Matroska
Format version : Version 4 / Version 2
File size : 7.35 GiB
Duration : 1h 31mn
Overall bit rate : 11.5 Mbps
Movie name : Стань легендой! Бигфут Младший / Bigfoot Junior / The Son of Bigfoot (2017) in 3D
Encoded date : UTC 2018-01-21 23:13:13
Writing application : mkvmerge v19.0.0 (‘Brave Captain’) 64-bit
Writing library : libebml v1.3.5 + libmatroska v1.4.8

Video
ID : 1
Format : AVC
Format/Info : Advanced Video Codec
Format profile : [email protected]
Format settings, CABAC : Yes
Format settings, ReFrames : 4 frames
Codec ID : V_MPEG4/ISO/AVC
Duration : 1h 31mn
Bit rate : 10 000 Kbps
Width : 1 920 pixels
Height : 1 080 pixels
Display aspect ratio : 16:9
Frame rate mode : Constant
Frame rate : 23.976 (24000/1001) fps
Color space : YUV
Chroma subsampling : 4:2:0
Bit depth : 8 bits
Scan type : Progressive
Bits/(Pixel*Frame) : 0.201
Stream size : 6.41 GiB (87%)
Title : BDRip by Ash61 (с BD 3D Ger)
Writing library : x264 core 146 r2538 121396c
Encoding settings : cabac=1 / ref=4 / deblock=1:-3:-3 / analyse=0x3:0x113 / me=umh / subme=10 / psy=1 / psy_rd=1.00:0.00 / mixed_ref=1 / me_range=32 / chroma_me=1 / trellis=2 / 8x8dct=1 / cqm=0 / deadzone=21,11 / fast_pskip=0 / chroma_qp_offset=-2 / threads=12 / lookahead_threads=2 / sliced_threads=0 / nr=0 / decimate=0 / interlaced=0 / bluray_compat=0 / constrained_intra=0 / bframes=9 / b_pyramid=2 / b_adapt=2 / b_bias=0 / direct=3 / weightb=1 / open_gop=0 / weightp=2 / keyint=250 / keyint_min=23 / scenecut=40 / intra_refresh=0 / rc_lookahead=60 / rc=2pass / mbtree=0 / bitrate=10000 / ratetol=1.0 / qcomp=0.70 / qpmin=0 / qpmax=69 / qpstep=4 / cplxblur=20.0 / qblur=0.5 / vbv_maxrate=40000 / vbv_bufsize=30000 / nal_hrd=none / filler=0 / frame-packing=4 / ip_ratio=1.40 / pb_ratio=1.30 / aq=1:0.70
Language : English
Default : Yes
Forced : No

Audio #1
ID : 2
Format : AC-3
Format/Info : Audio Coding 3
Mode extension : CM (complete main)
Format settings, Endianness : Big
Codec ID : A_AC3
Duration : 1h 31mn
Bit rate mode : Constant
Bit rate : 640 Kbps
Channel(s) : 6 channels
Channel positions : Front: L C R, Side: L R, LFE
Sampling rate : 48.0 KHz
Frame rate : 31.250 fps (1536 spf)
Compression mode : Lossy
Stream size : 420 MiB (6%)
Title : Дубляж — BD Rus
Language : Russian
Default : Yes
Forced : No

Audio #2
ID : 3
Format : AC-3
Format/Info : Audio Coding 3
Mode extension : CM (complete main)
Format settings, Endianness : Big
Codec ID : A_AC3
Duration : 1h 31mn
Bit rate mode : Constant
Bit rate : 192 Kbps
Channel(s) : 2 channels
Channel positions : Front: L R
Sampling rate : 48.0 KHz
Frame rate : 31.250 fps (1536 spf)
Compression mode : Lossy
Stream size : 126 MiB (2%)
Title : Дубляж — Line (моно)
Language : Ukrainian
Default : No
Forced : No

Audio #3
ID : 4
Format : AC-3
Format/Info : Audio Coding 3
Mode extension : CM (complete main)
Format settings, Endianness : Big
Codec ID : A_AC3
Duration : 1h 31mn
Bit rate mode : Constant
Bit rate : 640 Kbps
Channel(s) : 6 channels
Channel positions : Front: L C R, Side: L R, LFE
Sampling rate : 48.0 KHz
Frame rate : 31.250 fps (1536 spf)
Compression mode : Lossy
Stream size : 420 MiB (6%)
Language : English
Default : No
Forced : No

Menu
00:00:00.000 : :1
00:08:59.456 : :2
00:20:29.145 : :3
00:29:23.971 : :4
00:38:38.274 : :5
00:48:35.663 : :6
00:59:13.467 : :7
01:09:03.139 : :8
01:20:07.761 : :9
01:27:28.285 : :10

Скриншоты

Для оценки 3Д — Анимированные скрины















Каталог фильмов, выходивших в 3Д, со ссылками (вер. 26.12.2017)


О форматах и методах просмотра 3D



Добавлен 22-01-2018 13:01:44 (3 минуты назад)
Размер 7.35 GB (7895333860 Bytes)  





Добавить комментарий

Ваш e-mail не будет опубликован. Обязательные поля помечены *

*
*