Спарта (2016) HDTV 1080i

Скачать торрент (Doddle Loader)

Зеркало 1 (Media Get)

Спарта

Страна: Россия
Производство: Арго Фильм
Год выпуска: 2016
Жанр: боевик, драма
Продолжительность: 01:22:21

Режиссер: Николай Кудряшов
Автор сценария: Вячеслав Акулов

В ролях: Николай Кудряшов, Денис Никифоров, Ян Цапник, Владимир Епифанцев, Максим Коновалов, Андрей Семёнов, Михаил Малютин

Описание: Прямоугольный ринг и две команды бойцов друг напротив друга. Когда силы кончаются, товарища сменяет тот, кто за спиной… Это — Спарта! Новый зрелищный вид единоборств. «Спарта» для бывшего чемпиона по боям без правил Николая — единственная возможность вернуться в большой спорт и решить все проблемы, которые свалились на него три года назад: драка за честь подруги и тюрьма, предательство возлюбленной и отказ тренера в возвращении в команду. Вместе с верными друзьями спортсмен готов бросить вызов всему миру, и ставкой в бои станет его будущая жизнь…

Перевод: не требуется (оригинал)
Субтитры: нет


Качество: HDTV 1080i
Формат: TS
Видео кодек: XviD
Аудио кодек: МР2 | АС3
Видео: 1920×1080 (16:9), 25.000 fps, MPEG-TS ~8 956 kbps avg
Аудио №1: 48 kHz, МР2, 2/0 (L,R) ch, ~192 kbps | RUS
Аудио №2: 48.0 kHz, AC3 Dolby Digital, 3/2 (L,C,R,l,r) + LFE ch, ~448 kbps | RUS

Дата премьеры (РФ): 25 августа 2016, «Каропрокат»

Релиз от: ylnian / запись с канала Наш Детектив HD

Media Info

General
Идентификатор : 1 (0x1)
Полное имя : Спарта.2016.HDTV.1080i-ylnian.ts
Формат : MPEG-TS
Размер файла : 5,81 Гбайт
Продолжительность : 1 ч. 22 м.
Режим общего битрейта : Переменный
Общий поток : 10,1 Мбит/сек

Видео
Идентификатор : 3531 (0xDCB)
Идентификатор меню : 17013 (0x4275)
Формат : AVC
Формат/Информация : Advanced Video Codec
Профиль формата : [email protected]
Настройки формата : CABAC / 3 Ref Frames
Параметр CABAC формата : Да
Параметр RefFrames формата : 3 кадра
Идентификатор кодека : 27
Продолжительность : 1 ч. 22 м.
Битрейт : 8956 Кбит/сек
Ширина : 1920 пикселей
Высота : 1080 пикселей
Соотношение сторон : 16:9
Частота кадров : 25,000 кадров/сек
Стандарт вещания : Component
Цветовое пространство : YUV
Субдискретизация насыщенности : 4:2:0
Битовая глубина : 8 бит
Тип развёртки : Чересстрочная
Метод сохранения типа развёртки : Раздельные поля
Порядок развёртки : Верхнее поле первое
Бит/(Пиксели*Кадры) : 0.173
Размер потока : 5,15 Гбайт (89%)
Цветовой диапазон : Limited
Основные цвета : BT.709
Характеристики трансфера : BT.709
Коэффициенты матрицы : BT.709

Аудио #1
Идентификатор : 3532 (0xDCC)
Идентификатор меню : 17013 (0x4275)
Формат : MPEG Audio
Версия формата : Version 1
Профиль формата : Layer 2
Идентификатор кодека : 3
Продолжительность : 1 ч. 22 м.
Вид битрейта : Постоянный
Битрейт : 192 Кбит/сек
Каналы : 2 канала
Частота : 48,0 КГц
Частота кадров : 41,667 кадра/сек (1152 SPF)
Метод сжатия : С потерями
Размер потока : 113 Мбайт (2%)
Язык : Russian

Аудио #2
Идентификатор : 3533 (0xDCD)
Идентификатор меню : 17013 (0x4275)
Формат : AC-3
Формат/Информация : Audio Coding 3
Идентификатор кодека : 6
Продолжительность : 1 ч. 22 м.
Вид битрейта : Постоянный
Битрейт : 448 Кбит/сек
Каналы : 6 каналов
Расположение каналов : Front: L C R, Side: L R, LFE
Частота : 48,0 КГц
Частота кадров : 31,250 кадров/сек (1536 SPF)
Битовая глубина : 16 бит
Метод сжатия : С потерями
Размер потока : 264 Мбайт (4%)
Язык : Russian

Скриншоты

Добавлен 22-01-2018 14:23:46 (11 секунду назад)
Размер 5.81 GB (6236789456 Bytes)  





Добавить комментарий

Ваш e-mail не будет опубликован. Обязательные поля помечены *

*
*