Сорокалетний девственник / The 40-Year-Old Virgin (2005) HDRip-AVC от ExKinoRay | Unrated | D

Скачать торрент (Doddle Loader)

Зеркало 1 (Media Get)

Информация о фильме
Название: Сорокалетний девственник
Оригинальное название: The 40 Year Old Virgin
Год выхода: 2005
Жанр: Комедия, мелодрама
Режиссер: Джудд Апатоу
В ролях: Стив Карелл, Кэтрин Кинер, Пол Радд, Романи Малко, Сет Роген, Элизабет Бэнкс, Лесли Манн, Джейн Линч, Джерри Бедноб, Шелли Мэлил, Кэт Деннингс, Джорди Мастерсон, Челси Смит, Джона Хилл, Эрика Виттина Филлипс, Марика Доминчук, Мелинда Калинг, Мо Коллинз, Джиллиан Вигмэн, Кимберли Пейдж, Сиена Гоинс, Чарли Хартсок, Нэнси Уоллс

О фильме :
40-летний Энди Стицер добился в жизни многого. У него непыльная и хорошо оплачиваемая работенка в магазине по продаже электронной бытовой техники, хорошие друзья, а также милая квартирка, в которой находится гордость Энди — коллекция игрушечных героев и комиксов. Однако его жизнь лишена простых человеческих радостей, которые доступны большинству людей его возраста. Дело в том, что у Энди никогда не было секса. Его приятели и коллеги относятся к этому по-разному. Одни считают Энди чудаком, другие же лезут из кожи вон, чтобы помочь ему наверстать упущенное. Но все напрасно. Ничто не может заставить их друга расстаться с девственностью, пока он не встречает 40-летнюю Триш, мать троих детей. Друзья Энди начинают с нетерпением ждать «счастливого события», однако вскоре они с ужасом узнают, что новоявленная парочка решила построить свои взаимоотношения на полном отказе от секса.

Страна: США
Продолжительность: 02:12:27
Перевод: Профессиональный (полное дублирование)

Файл
Формат: MKV
Качество: HDRip-AVC
Видео: MPEG-4 AVC, 720×388, ~ 709 Кбит/с
Аудио: AAC-LC, 2 ch, ~ 76 Кбит/с
Субтитры: Русские, английские

MI

Общее
Уникальный идентификатор : 254994709816366397729398922000540538837 (0xBFD631D9CC037EF78417F93AFF3297D5)
Полное имя : D:MOVIESThe.40.Year.Old.Virgin.Unrated.2005.ExKinoRay.mkv
Формат : Matroska
Версия формата : Version 4 / Version 2
Размер файла : 746 Мбайт
Продолжительность : 2 ч. 12 м.
Общий поток : 787 Кбит/сек
Дата кодирования : UTC 2018-01-21 13:03:40
Программа кодирования : mkvmerge v15.0.0 (‘Duel with the Devil’) 64-bit
Библиотека кодирования : libebml v1.3.5 + libmatroska v1.4.5

Видео
Идентификатор : 1
Формат : AVC
Формат/Информация : Advanced Video Codec
Профиль формата : [email protected]
Параметр CABAC формата : Да
Параметр RefFrames формата : 10 кадров
Идентификатор кодека : V_MPEG4/ISO/AVC
Продолжительность : 2 ч. 12 м.
Битрейт : 709 Кбит/сек
Ширина : 720 пикселей
Высота : 388 пикселей
Соотношение сторон : 1,85:1
Режим частоты кадров : Постоянный
Частота кадров : 23,976 (24000/1001) кадра/сек
Цветовое пространство : YUV
Субдискретизация насыщенности : 4:2:0
Битовая глубина : 8 бит
Тип развёртки : Прогрессивная
Бит/(Пиксели*Кадры) : 0.106
Размер потока : 672 Мбайт (90%)
Библиотека кодирования : x264 core 152 r2851kMod ba24899
Настройки программы : cabac=1 / ref=10 / deblock=1:-2:-2 / analyse=0x3:0x133 / me=umh / subme=11 / psy=1 / fade_compensate=0.00 / psy_rd=1.00:0.10 / mixed_ref=1 / me_range=32 / chroma_me=1 / trellis=2 / 8x8dct=1 / cqm=0 / deadzone=21,11 / fast_pskip=0 / chroma_qp_offset=-3 / threads=6 / lookahead_threads=1 / sliced_threads=0 / nr=0 / decimate=0 / interlaced=0 / bluray_compat=0 / constrained_intra=0 / bframes=10 / b_pyramid=2 / b_adapt=2 / b_bias=0 / direct=3 / weightb=1 / open_gop=0 / weightp=2 / keyint=240 / keyint_min=23 / scenecut=40 / intra_refresh=0 / rc_lookahead=40 / rc=2pass / mbtree=1 / bitrate=709 / ratetol=1.0 / qcomp=0.60 / qpmin=0 / qpmax=69 / qpstep=4 / cplxblur=20.0 / qblur=0.5 / vbv_maxrate=50000 / vbv_bufsize=62500 / nal_hrd=none / filler=0 / ip_ratio=1.40 / aq=3:1.00
Default : Да
Forced : Нет

Аудио
Идентификатор : 2
Формат : AAC
Формат/Информация : Advanced Audio Codec
Профиль формата : LC
Идентификатор кодека : A_AAC
Продолжительность : 2 ч. 12 м.
Битрейт : 76,0 Кбит/сек
Каналы : 2 канала
Расположение каналов : Front: L R
Частота : 48,0 КГц
Частота кадров : 46,875 кадров/сек (1024 SPF)
Метод сжатия : С потерями
Задержка видео : 9 мс.
Размер потока : 72,0 Мбайт (10%)
Язык : Russian
Default : Да
Forced : Нет

Текст #1
Идентификатор : 3
Формат : UTF-8
Идентификатор кодека : S_TEXT/UTF8
Идентификатор кодека/Информация : UTF-8 Plain Text
Продолжительность : 2 ч. 6 м.
Битрейт : 152 бит/сек
ElementCount : 2471
Размер потока : 141 Кбайт (0%)
Язык : Russian
Default : Нет
Forced : Нет

Текст #2
Идентификатор : 4
Формат : UTF-8
Идентификатор кодека : S_TEXT/UTF8
Идентификатор кодека/Информация : UTF-8 Plain Text
Продолжительность : 2 ч. 10 м.
Битрейт : 95 бит/сек
ElementCount : 2733
Размер потока : 91,3 Кбайт (0%)
Язык : English
Default : Нет
Forced : Нет

Скриншоты

Релиз от:

Добавлен 21-01-2018 16:19:00 (3 часа назад)
Размер 746.09 MB (782332434 Bytes)  





Добавить комментарий

Ваш e-mail не будет опубликован. Обязательные поля помечены *

*
*