Секреты гробницы Христа: специальный репортаж / Secrets of Christ’s Tomb: Explorer Special (2017) HDTVRip-AVC от Kaztorrents | P1

Скачать торрент (Doddle Loader)

Зеркало 1 (Media Get)

✦ Секреты гробницы Христа: специальный репортаж / Secrets of Christ’s Tomb: Explorer Special ✦

Информация о фильме:
❖ Год выпуска: 2017
❖ Страна: США, Великобритания / Pioner Film and Television Productions for National Geographic
❖ Жанр: Документальный, история
❖ Перевод: Профессиональный (одноголосый) | (Велес)
❖ Продолжительность: 00:46:39

❖ Режиссер: Боб Стрэндж

❖ Релиз от:
❖ Автор рипа: ProT1gR

Описание фильма:
Команда всемирно известных экспертов пытается исследовать тайну захоронения Иисуса. Новые методы позволят нам провести детальный осмотр и ремонт на могиле Спасителя. Археологи впервые решили за 500 лет удалить мраморную плиту гробницы. Исследования показали, что фрагменты породы, приведенные ниже, датируются IV веком до нашей эры Прорывное открытие — важный момент в обсуждении места захоронения Иисуса Христа.

Технические данные файла:
❖ Качество: HDRip-AVC (Исх. HDTVRip 720p)
❖ Формат: MKV
❖ Видео: 1024×576 (16:9), 25 fps, MPEG-4 AVC ~ 2000 kb/s (0.136 bit/pixel)
❖ Аудио: AC3, 48.0 KHz, 6 ch, 384 kbps

MI

General
Unique ID : 226794005555704167679362884878205874378 (0xAA9EEFC8578A22948D172CB1F06E70CA)
Complete name : X:x264NG Secrets of Christs Tomb.(2017).HDTVRip-AVC.(Kaztorrents).mkv
Format : Matroska
Format version : Version 2
File size : 796 MiB
Duration : 46 min 39 s
Overall bit rate : 2 386 kb/s
Encoded date : UTC 2018-01-15 10:56:48
Writing application : mkvmerge v7.8.0 (‘River Man’) 32bit built on Apr 3 2015 12:11:22
Writing library : libebml v1.3.1 + libmatroska v1.4.2

Video
ID : 1
Format : AVC
Format/Info : Advanced Video Codec
Format profile : [email protected]
Format settings, CABAC : Yes
Format settings, ReFrames : 12 frames
Codec ID : V_MPEG4/ISO/AVC
Duration : 46 min 39 s
Bit rate : 2 000 kb/s
Width : 1 024 pixels
Height : 576 pixels
Display aspect ratio : 16:9
Frame rate mode : Constant
Frame rate : 25.000 FPS
Color space : YUV
Chroma subsampling : 4:2:0
Bit depth : 8 bits
Scan type : Progressive
Bits/(Pixel*Frame) : 0.136
Stream size : 652 MiB (82%)
Writing library : x264 core 146 r2538 121396c
Encoding settings : cabac=1 / ref=12 / deblock=1:-3:-3 / analyse=0x3:0x113 / me=umh / subme=11 / psy=1 / psy_rd=1.00:0.00 / mixed_ref=1 / me_range=48 / chroma_me=1 / trellis=2 / 8x8dct=1 / cqm=0 / deadzone=21,11 / fast_pskip=0 / chroma_qp_offset=-2 / threads=6 / lookahead_threads=1 / sliced_threads=0 / nr=0 / decimate=0 / interlaced=0 / bluray_compat=0 / constrained_intra=0 / bframes=12 / b_pyramid=2 / b_adapt=2 / b_bias=0 / direct=3 / weightb=1 / open_gop=0 / weightp=2 / keyint=240 / keyint_min=24 / scenecut=40 / intra_refresh=0 / rc_lookahead=40 / rc=2pass / mbtree=0 / bitrate=2000 / ratetol=1.0 / qcomp=0.60 / qpmin=0 / qpmax=69 / qpstep=4 / cplxblur=20.0 / qblur=0.5 / vbv_maxrate=50000 / vbv_bufsize=62500 / nal_hrd=none / filler=0 / ip_ratio=1.40 / pb_ratio=1.30 / aq=1:1.10
Default : Yes
Forced : No

Audio
ID : 2
Format : AC-3
Format/Info : Audio Coding 3
Mode extension : CM (complete main)
Format settings, Endianness : Big
Codec ID : A_AC3
Duration : 46 min 39 s
Bit rate mode : Constant
Bit rate : 384 kb/s
Channel(s) : 2 channels
Channel positions : Front: L R
Sampling rate : 48.0 kHz
Frame rate : 31.250 FPS (1536 spf)
Bit depth : 16 bits
Compression mode : Lossy
Stream size : 128 MiB (16%)
Default : Yes
Forced : No

Скриншоты



Добавлен 22-01-2018 18:23:40 (2 минуты назад)
Размер 796.12 MB (834787929 Bytes)  





Добавить комментарий

Ваш e-mail не будет опубликован. Обязательные поля помечены *

*
*