Сделано в Китае / Made in China / Mei-deu in Chai-na (2014) WEBRip 720p | L2

Скачать торрент (Doddle Loader)

Зеркало 1 (Media Get)

Информация о фильме
Название: Сделано в Китае
Оригинальное название: Made in China / Mei-deu in Chai-na
Год выхода: 2014
Жанр: драма
Режиссер: Ким Ки Дук
В ролях: Им Хва Ён, Пак Ки Ун, Хан Чхэ А, Ю Джэ Мён, Ким Юн Тэ

О фильме:
Китаец Чен занимается поставками угря в Южную Корею, но неожиданно в его угре обнаруживают ртуть и решают его забраковать. Из-за этих событий отец Чена впадает в глубокую депрессию. От имени своего отца Чен незаконно проникает на территорию Южной Кореи, чтобы просить о повторной проверке угря. Там он знакомится с девушкой по имени Ми…


Страна: Южная Корея
Продолжительность: 01:40:10
Перевод: Любительский, двухголосый, закадровый (перевод: Ozu и Anna Lee, озвучка: студия «Колобок», закадровый текст читали: DeadSno и Den904)

Файл
Кодек: V_MPEG4/ISO/AVC
Качество: WEBRip 720p
Видео: 1280×720 (16:9), 29.970 FPS, 3000 kb/s
Звук: AC-3, 48.0 kHz, 2ch, 192 kb/s
Субтитры: корейские (хардсаб)

Скриншоты

MediaInfo

General
Unique ID : 181690315040106482838765125193938406051 (0x88B048264763DB84A9A1FE5C25FE8AA3)
Complete name : Сделано в Китае (Студия Колобок).mkv
Format : Matroska
Format version : Version 4 / Version 2
File size : 2.22 GiB
Duration : 1 h 40 min
Overall bit rate : 3 176 kb/s
Encoded date : UTC 2018-01-21 13:14:20
Writing application : mkvmerge v6.2.0 (‘Promised Land’) built on Apr 28 2013 12:22:01
Writing library : libebml v1.3.0 + libmatroska v1.4.0

Video
ID : 1
Format : AVC
Format/Info : Advanced Video Codec
Format profile : [email protected]
Format settings, CABAC : No
Format settings, RefFrames : 1 frame
Format settings, GOP : M=1, N=30
Codec ID : V_MPEG4/ISO/AVC
Duration : 1 h 40 min
Bit rate : 3 000 kb/s
Width : 1 280 pixels
Height : 720 pixels
Display aspect ratio : 16:9
Frame rate mode : Constant
Frame rate : 29.970 (29970/1000) FPS
Color space : YUV
Chroma subsampling : 4:2:0
Bit depth : 8 bits
Scan type : Progressive
Bits/(Pixel*Frame) : 0.109
Stream size : 2.04 GiB (92%)
Writing library : x264 core 116
Encoding settings : cabac=0 / ref=1 / deblock=1:0:0 / analyse=0x1:0x1 / me=dia / subme=3 / psy=1 / psy_rd=1.00:0.00 / mixed_ref=0 / me_range=16 / chroma_me=1 / trellis=0 / 8x8dct=0 / cqm=0 / deadzone=21,11 / fast_pskip=1 / chroma_qp_offset=0 / threads=12 / sliced_threads=0 / nr=0 / decimate=1 / interlaced=0 / bluray_compat=0 / constrained_intra=0 / bframes=0 / weightp=0 / keyint=30 / keyint_min=16 / scenecut=0 / intra_refresh=0 / rc=abr / mbtree=0 / bitrate=3000 / ratetol=1.0 / qcomp=0.60 / qpmin=1 / qpmax=51 / qpstep=4 / ip_ratio=1.41 / aq=1:1.00
Default : Yes
Forced : No

Audio
ID : 2
Format : AC-3
Format/Info : Audio Coding 3
Format settings, Endianness : Big
Codec ID : A_AC3
Duration : 1 h 40 min
Bit rate mode : Constant
Bit rate : 192 kb/s
Channel(s) : 2 channels
Channel positions : Front: L R
Sampling rate : 48.0 kHz
Frame rate : 31.250 FPS (1536 SPF)
Bit depth : 16 bits
Compression mode : Lossy
Stream size : 138 MiB (6%)
Service kind : Complete Main
Default : Yes
Forced : No

Релиз от:

Добавлен 22-01-2018 21:58:23 (8 секунд назад)
Размер 2.22 GB (2386931358 Bytes)  





Добавить комментарий

Ваш e-mail не будет опубликован. Обязательные поля помечены *

*
*