Призраки / Паранормальное / Ghosted [01×01-07 из 13] (2017) WEBRip | OmskBird

Скачать торрент (Doddle Loader)

Зеркало 1 (Media Get)

Информация о фильме
Название: Призраки / Паранормальное
Оригинальное название: Ghosted
Год выхода: 2017
Жанр: Комедия
Режиссер: Джонатан Крисел
В ролях: Адиль Ахтар, Сара Бэйкер, Кристиан Кэллоуэй, Этан Дрэйк Дэвис, Тиша Френч, Линк Хэнд, Эди Паттерсон, Крэйг Робинсон, Адам Скотт

О фильме:
История о скептике и цинике Лерое Райте и свято верящим во всякую чертовщину Максе Эллисоне. Секретное исследовательское бюро нанимает главных героев для слежки за вспышкой паранормальной активности в Лос-Анджелесе. Изучая аномалию, Райт и Эллисон обнаруживают более серьёзную тайну, угрожающую гибелью всему человечеству.

Страна: США
Продолжительность: ~ 00:25:00 серия
Перевод: Любительский (многоголосый закадровый) OmskBird

Файл
Кодек: XviD
Качество: WEBRip
Видео: 720×400 (1.80:1), 23.976 fps, ~1801 kbps avg, 0.26 bit/pixel
Звук:
Аудио rus: AC-3, 2 ch, 48,0 КГц, 192 Кбит/сек — OmskBird

Субтитры: отсутствуют
Реклама: присутствуют вставки рекламы

Семпл

Релиз:

Релиз-группа: OmskBird
Перевод: Татьяна Масаковская
Роли озвучивали: Павел Ярощик, Андрей Стакионис, Ольга Федорова
Звукорежиссер: Павел Квентов
Постер: Ксения Просветова

Раздача с рекламными вставками

MediaInfo

General
Complete name : G:FilmsGhosted.s01.WEBRip.OmskBirdGhosted.S01E01.WEBRip.OmskBird.avi
Format : AVI
Format/Info : Audio Video Interleave
File size : 339 MiB
Duration : 23mn 40s
Overall bit rate : 2 003 Kbps
Writing application : VirtualDubMod 1.5.10.3 (build 2550/release)
Writing library : VirtualDubMod build 2550/release

Video
ID : 0
Format : MPEG-4 Visual
Format profile : Advanced [email protected]
Format settings, BVOP : 1
Format settings, QPel : No
Format settings, GMC : No warppoints
Format settings, Matrix : Default (MPEG)
Codec ID : XVID
Codec ID/Hint : XviD
Duration : 23mn 40s
Bit rate : 1 802 Kbps
Width : 720 pixels
Height : 400 pixels
Display aspect ratio : 16:9
Frame rate : 23.976 (23976/1000) fps
Color space : YUV
Chroma subsampling : 4:2:0
Bit depth : 8 bits
Scan type : Progressive
Compression mode : Lossy
Bits/(Pixel*Frame) : 0.261
Stream size : 305 MiB (90%)
Writing library : XviD 73

Audio
ID : 1
Format : AC-3
Format/Info : Audio Coding 3
Mode extension : CM (complete main)
Format settings, Endianness : Big
Codec ID : 2000
Duration : 23mn 40s
Bit rate mode : Constant
Bit rate : 192 Kbps
Channel(s) : 2 channels
Channel positions : Front: L R
Sampling rate : 48.0 KHz
Frame rate : 31.250 fps (1536 spf)
Compression mode : Lossy
Stream size : 32.5 MiB (10%)
Alignment : Split accross interleaves
Interleave, duration : 42 ms (1.00 video frame)
Interleave, preload duration : 500 ms

Скриншоты

Внимание! Раздача ведётся путём добавления новых серий.

Внимание! Раздача ведётся путём добавления новых серий; при каждом добавлении создётся новый торрент. Чтобы начать докачку новой серии, пользователям необходимо сделать следующее:
Остановить скачивание.
Удалить старый торрент у себя из клиента (старые серии удалять не надо).
Скачать новый торрент и запустить его у себя в клиенте вместо старого, при этом указать клиенту путь в старую папку куда и должно происходить скачивание новых серий.
Ваш клиент при этом должен произвести хеширование (проверку) старой папки (если не производит сам — помогите ему сделать это), и будет докачивать только те серии которых у вас ещё нет. Старые серии при этом не удаляются, а продолжают раздаваться!
Eсли вы уже удалили старые серии, то предотвратить повторную закачку старых серий можно, отжав галочку в соответсвующих местах при запуске нового торрента. По возможности, желательно не удалять старые серии как можно дольше чтобы релизёр не столько продолжал раздавать старые серии, а смог сконцентрироваться на новых.

Релиз от: OmskBird

Добавлен 21-11-2017 10:11:44 (7 секунд назад)
Размер 2.21 GB (2374864896 Bytes)  





Добавить комментарий

Ваш e-mail не будет опубликован. Обязательные поля помечены *

*
*