Призраки / Паранормальное / Ghosted [01×01-07 из 13] (2017) WEBRip 720p | OmskBird

Скачать торрент (Doddle Loader)

Зеркало 1 (Media Get)

Информация о фильме
Название: Призраки / Паранормальное
Оригинальное название: Ghosted
Год выхода: 2017
Жанр: Комедия
Режиссер: Джонатан Крисел
В ролях: Адиль Ахтар, Сара Бэйкер, Кристиан Кэллоуэй, Этан Дрэйк Дэвис, Тиша Френч, Линк Хэнд, Эди Паттерсон, Крэйг Робинсон, Адам Скотт

О фильме:
История о скептике и цинике Лерое Райте и свято верящим во всякую чертовщину Максе Эллисоне. Секретное исследовательское бюро нанимает главных героев для слежки за вспышкой паранормальной активности в Лос-Анджелесе. Изучая аномалию, Райт и Эллисон обнаруживают более серьёзную тайну, угрожающую гибелью всему человечеству.


Страна: США
Продолжительность: ~ 00:25:00 серия
Перевод: Любительский (многоголосый закадровый) OmskBird

Файл
Кодек: MPEG-4 AVC/H.264
Качество: WEBRip 720p
Видео: ~2900 Кбит/сек, 1280×720 (1.778), 23.976 кадр/сек
Звук:
Аудио rus: AC-3, 2 ch, 48,0 КГц, 192 Кбит/сек — OmskBird

Субтитры: отсутствуют
Реклама: присутствуют вставки рекламы

Семпл

Релиз:

Релиз-группа: OmskBird
Перевод: Татьяна Масаковская
Роли озвучивали: Павел Ярощик, Андрей Стакионис, Ольга Федорова
Звукорежиссер: Павел Квентов
Постер: Ксения Просветова

Раздача с рекламными вставками

MediaInfo

General
Complete name : G:FilmsGhosted.s01.720p.WEBRip.OmskBirdGhosted.S01E01.720p.WEBRip.OmskBird.mp4
Format : MPEG-4
Format profile : Base Media
Codec ID : isom (isom)
File size : 538 MiB
Duration : 23mn 40s
Overall bit rate : 3 175 Kbps
Encoded date : UTC 2017-09-25 19:50:19
Tagged date : UTC 2017-09-25 19:50:19
Writing application : Yamb 2.1.0.0 (http://yamb.unite-video.com)

Video
ID : 1
Format : AVC
Format/Info : Advanced Video Codec
Format profile : [email protected]
Format settings, CABAC : Yes
Format settings, ReFrames : 3 frames
Codec ID : avc1
Codec ID/Info : Advanced Video Coding
Duration : 23mn 40s
Bit rate : 2 981 Kbps
Maximum bit rate : 6 786 Kbps
Width : 1 280 pixels
Height : 720 pixels
Display aspect ratio : 16:9
Frame rate mode : Constant
Frame rate : 23.976 (24000/1001) fps
Standard : PAL
Color space : YUV
Chroma subsampling : 4:2:0
Bit depth : 8 bits
Scan type : Progressive
Bits/(Pixel*Frame) : 0.135
Stream size : 505 MiB (94%)
Language : English
Encoded date : UTC 2017-09-25 07:18:43
Tagged date : UTC 2017-09-25 19:50:30
Color range : Limited
Color primaries : BT.709
Transfer characteristics : BT.709
Matrix coefficients : BT.709

Audio
ID : 2
Format : AC-3
Format/Info : Audio Coding 3
Mode extension : CM (complete main)
Format settings, Endianness : Big
Codec ID : ac-3
Duration : 23mn 40s
Bit rate mode : Constant
Bit rate : 192 Kbps
Channel(s) : 2 channels
Channel positions : Front: L R
Sampling rate : 48.0 KHz
Frame rate : 31.250 fps (1536 spf)
Bit depth : 16 bits
Compression mode : Lossy
Stream size : 32.5 MiB (6%)
Encoded date : UTC 2017-09-25 19:50:29
Tagged date : UTC 2017-09-25 19:50:30

Скриншоты

Внимание! Раздача ведётся путём добавления новых серий.

Внимание! Раздача ведётся путём добавления новых серий; при каждом добавлении создётся новый торрент. Чтобы начать докачку новой серии, пользователям необходимо сделать следующее:
Остановить скачивание.
Удалить старый торрент у себя из клиента (старые серии удалять не надо).
Скачать новый торрент и запустить его у себя в клиенте вместо старого, при этом указать клиенту путь в старую папку куда и должно происходить скачивание новых серий.
Ваш клиент при этом должен произвести хеширование (проверку) старой папки (если не производит сам — помогите ему сделать это), и будет докачивать только те серии которых у вас ещё нет. Старые серии при этом не удаляются, а продолжают раздаваться!
Eсли вы уже удалили старые серии, то предотвратить повторную закачку старых серий можно, отжав галочку в соответсвующих местах при запуске нового торрента. По возможности, желательно не удалять старые серии как можно дольше чтобы релизёр не столько продолжал раздавать старые серии, а смог сконцентрироваться на новых.

Релиз от: OmskBird

Добавлен 21-11-2017 10:11:36 (2 минуты назад)
Размер 3.48 GB (3740744374 Bytes)  





Добавить комментарий

Ваш e-mail не будет опубликован. Обязательные поля помечены *

*
*