Пила 8 / Jigsaw (2017) BDRip-HEVC 1080p от ХиМиК | D | iTunes

Скачать торрент (Doddle Loader)

Зеркало 1 (Media Get)

Информация о фильме
Название: Пила 8
Оригинальное название: Jigsaw
Год выхода: 2017
Жанр: Ужасы, триллер, криминал, детектив
Режиссер: Майкл Спириг, Питер Спириг
В ролях: Мэтт Пассмор, Тобин Белл, Каллум Кит Ренни, Ханна Андерсон, Кле Беннетт, Лора Вандервурт, Пол Браунштейн, Мандела Ван Пиблз, Бриттани Аллен, Джозиа Блэк, Эдвард Раттл, Майкл Бойсверт, Сэм Коулес, Трой Фельдман, Шаквен Льюис

О фильме:
В городе обнаруживают несколько тел, обладатели которых встретили определенно не лучший конец. Все улики указывают на одного человека: Джона Крамера. Но как это возможно? Человек, известный как Пила, мертв уже более десяти лет. Неужели все-таки нашелся тот, кто рискнул подобрать мантию жестокого маньяка?

Страна: США
Студия: Serendipity Productions, Twisted Pictures, A Bigger Boat
Продолжительность: 01:31:56
Перевод: Дублированный (iTunes)

Файл
Кодек: HEVC x265 10 bit
Качество: BDRip-HEVC 1080p
Видео: 1920×804 (2.40:1), 4315 Кбит/сек, 0.117 бит/(Пиксели*Кадры), 23.976 (24000/1001), HEVC ([email protected]@High) 10 бит
Звук:
Русская, AC3, 384 Кбит/сек, Front: L C R, Side: L R, LFE, 48,0 КГц (Дубляж iTunes)
Английская, AC3, 448 Кбит/сек, Front: L C R, Side: L R, LFE, 48,0 КГц (Оригинал)
Субтитры: нет

Семпл

MediaInfo

General
Unique ID : 242495106079175702598507675009919974744 (0xB66EDBCE4AE3FB99AC7C7DADF8F77D58)
Complete name : H:HEVC 210 BITJigsaw_2017_BDRip_1080p_(HEVC)_10bit.mkv
Format : Matroska
Format version : Version 4 / Version 2
File size : 3.31 GiB
Duration : 1 h 31 min
Overall bit rate : 5 149 kb/s
Encoded date : UTC 2018-01-22 18:39:25
Writing application : mkvmerge v18.0.0 (‘Apricity’) 64-bit
Writing library : libebml v1.3.5 + libmatroska v1.4.8
Cover : Yes
Attachments : cover.png

Video
ID : 1
Format : HEVC
Format/Info : High Efficiency Video Coding
Format profile : Main [email protected]@High
Codec ID : V_MPEGH/ISO/HEVC
Duration : 1 h 31 min
Bit rate : 4 315 kb/s
Width : 1 920 pixels
Height : 804 pixels
Display aspect ratio : 2.40:1
Frame rate mode : Constant
Frame rate : 23.976 (24000/1001) FPS
Color space : YUV
Chroma subsampling : 4:2:0
Bit depth : 10 bits
Bits/(Pixel*Frame) : 0.117
Stream size : 2.77 GiB (84%)
Writing library : x265 2.6+22-ff02513b92c0:(Windows)(GCC 7.2.0)(64 bit) 10bit
Encoding settings : cpuid=1173503 / frame-threads=4 / numa-pools=16 / wpp / no-pmode / no-pme / no-psnr / no-ssim / log-level=2 / input-csp=1 / input-res=1920×804 / interlace=0 / total-frames=0 / level-idc=41 / high-tier=1 / uhd-bd=0 / ref=5 / no-allow-non-conformance / no-repeat-headers / annexb / no-aud / no-hrd / info / hash=0 / no-temporal-layers / open-gop / min-keyint=23 / keyint=240 / gop-lookahead=0 / bframes=8 / b-adapt=2 / no-b-pyramid / bframe-bias=0 / rc-lookahead=60 / lookahead-slices=4 / scenecut=40 / radl=0 / no-intra-refresh / ctu=64 / min-cu-size=8 / rect / amp / max-tu-size=32 / tu-inter-depth=4 / tu-intra-depth=4 / limit-tu=1 / rdoq-level=2 / dynamic-rd=0.00 / no-ssim-rd / signhide / tskip / nr-intra=0 / nr-inter=0 / no-constrained-intra / no-strong-intra-smoothing / max-merge=3 / limit-refs=0 / limit-modes / me=3 / subme=7 / merange=57 / temporal-mvp / weightp / weightb / no-analyze-src-pics / deblock=-3:-3 / no-sao / no-sao-non-deblock / rd=6 / no-early-skip / no-rskip / no-fast-intra / no-tskip-fast / no-cu-lossless / b-intra / no-splitrd-skip / rdpenalty=0 / psy-rd=2.00 / psy-rdoq=1.00 / no-rd-refine / no-lossless / cbqpoffs=-2 / crqpoffs=-2 / rc=crf / crf=18.0 / qcomp=0.60 / qpstep=4 / stats-write=0 / stats-read=0 / vbv-maxrate=50000 / vbv-bufsize=50000 / vbv-init=0.9 / crf-max=0.0 / crf-min=0.0 / ipratio=1.40 / pbratio=1.30 / aq-mode=1 / aq-strength=1.00 / cutree / zone-count=1 / zones: / start-frame=122211 / end-frame=132275 / qp=35 / no-strict-cbr / qg-size=32 / no-rc-grain / qpmax=69 / qpmin=0 / no-const-vbv / sar=1 / overscan=0 / videoformat=5 / range=0 / colorprim=2 / transfer=2 / colormatrix=1 / chromaloc=0 / display-window=0 / max-cll=0,0 / min-luma=0 / max-luma=1023 / log2-max-poc-lsb=8 / vui-timing-info / vui-hrd-info / slices=1 / no-opt-qp-pps / no-opt-ref-list-length-pps / no-multi-pass-opt-rps / scenecut-bias=0.05 / no-opt-cu-delta-qp / no-aq-motion / no-hdr / no-hdr-opt / no-dhdr10-opt / analysis-save=(null) / analysis-load=(null) / analysis-reuse-level=5 / scale-factor=0 / refine-intra=0 / refine-inter=0 / refine-mv=0 / no-limit-sao / ctu-info=0 / no-lowpass-dct / refine-mv-type=0 / copy-pic=1
Language : English
Default : Yes
Forced : Yes
Color range : Limited
Matrix coefficients : BT.709

Audio #1
ID : 2
Format : AC-3
Format/Info : Audio Coding 3
Format settings, Endianness : Big
Codec ID : A_AC3
Duration : 1 h 31 min
Bit rate mode : Constant
Bit rate : 384 kb/s
Channel(s) : 6 channels
Channel positions : Front: L C R, Side: L R, LFE
Sampling rate : 48.0 kHz
Frame rate : 31.250 FPS (1536 SPF)
Bit depth : 16 bits
Compression mode : Lossy
Stream size : 253 MiB (7%)
Title : Дубляж iTunes
Language : Russian
Service kind : Complete Main
Default : Yes
Forced : No

Audio #2
ID : 3
Format : AC-3
Format/Info : Audio Coding 3
Format settings, Endianness : Big
Codec ID : A_AC3
Duration : 1 h 31 min
Bit rate mode : Constant
Bit rate : 448 kb/s
Channel(s) : 6 channels
Channel positions : Front: L C R, Side: L R, LFE
Sampling rate : 48.0 kHz
Frame rate : 31.250 FPS (1536 SPF)
Bit depth : 16 bits
Compression mode : Lossy
Stream size : 295 MiB (9%)
Title : Оригинал
Language : English
Service kind : Complete Main
Default : No
Forced : No

Menu
00:00:00.000 : en:Chapter 1
00:03:46.976 : en:Chapter 2
00:10:39.847 : en:Chapter 3
00:14:09.974 : en:Chapter 4
00:22:39.608 : en:Chapter 5
00:29:03.408 : en:Chapter 6
00:35:18.533 : en:Chapter 7
00:40:38.519 : en:Chapter 8
00:43:09.211 : en:Chapter 9
00:46:12.352 : en:Chapter 10
00:52:00.742 : en:Chapter 11
00:56:34.224 : en:Chapter 12
01:04:13.849 : en:Chapter 13
01:09:17.569 : en:Chapter 14
01:13:33.283 : en:Chapter 15
01:23:31.089 : en:Chapter 16

Скриншоты

Релиз от: от XuMuK

Добавлен 22-01-2018 22:53:15 (15 секунд назад)
Размер 3.31 GB (3550981807 Bytes)  





Добавить комментарий

Ваш e-mail не будет опубликован. Обязательные поля помечены *

*
*