Падающая вода / Falling Water [02х01 из 10] (2018) WEB-DLRip | OMSKBIRD

Скачать торрент (Doddle Loader)

Зеркало 1 (Media Get)

Информация о фильме
Название: Падающая вода
Оригинальное название: Falling Water
Год выхода: 2018
Жанр: Фантастика, триллер, драма, детектив
Режиссер: Генри Бромелл, Блейк Мастерс
В ролях: Дэвид Аджала, Лиззи Брошере, Уилл Юн Ли, Кай Леннокс, Анна Вуд, Брук Блум, Мелани Николлз-Кинг, Джоди Лонг, Зак Орт и др.

О фильме:
Три незнакомца постепенно осознают, что им снятся отдельные фрагменты общего сна. Каждый из них должен выполнить собственный квест — один ищет пропавшую подружку, второй — потерянного ребенка, третий — лекарство, которое выведет из кататонического ступора его мать, а тем временем все ключи к квестам находятся в их общем сне. Чем глубже они погружаются, тем сильнее осознают, что их истинная миссия намного важнее, чем личные поиски, и что образы, возникшие в их общем сне, возможно, содержат главную подсказку о судьбе мира.


Страна: США
Продолжительность: ~ 44 мин. серия
Перевод: Любительский (многоголосый закадровый) | OMSKBIRD

Файл
Кодек: Xvid
Качество: WEB-DLRip
Видео: AVI, 720×400 (16:9), 23.976 fps, ~ 1800 kbps
Звук: Аудио rus: AC-3, 48 KHz, 2 ch, 192 kbps | OMSKBIRD records

Семпл

Присутствует реклама!

Скриншоты

Mediainfo:

General
Complete name : H:Мои ДокументыВидеоРАЗДАЧИВОДОПАДFalling Water S02 WEB-DLRip (OMSKBIRD)Falling Water S02E01 WEB-DLRip (OMSKBIRD).avi
Format : AVI
Format/Info : Audio Video Interleave
File size : 598 MiB
Duration : 42 min 32 s
Overall bit rate : 1 964 kb/s
Writing application : VirtualDubMod 1.5.10.3 | www.virtualdub-fr.org || (build 2550/release)
Writing library : VirtualDubMod build 2550/release

Video
ID : 0
Format : MPEG-4 Visual
Format profile : Advanced [email protected]
Format settings, BVOP : 1
Format settings, QPel : No
Format settings, GMC : No warppoints
Format settings, Matrix : Default (H.263)
Codec ID : XVID
Codec ID/Hint : XviD
Duration : 42 min 32 s
Bit rate : 1 762 kb/s
Width : 720 pixels
Height : 400 pixels
Display aspect ratio : 16:9
Frame rate : 23.976 (24000/1001) FPS
Color space : YUV
Chroma subsampling : 4:2:0
Bit depth : 8 bits
Scan type : Progressive
Compression mode : Lossy
Bits/(Pixel*Frame) : 0.255
Stream size : 536 MiB (90%)
Writing library : XviD 67

Audio
ID : 1
Format : AC-3
Format/Info : Audio Coding 3
Format settings, Endianness : Big
Codec ID : 2000
Duration : 42 min 32 s
Bit rate mode : Constant
Bit rate : 192 kb/s
Channel(s) : 2 channels
Channel positions : Front: L R
Sampling rate : 48.0 kHz
Frame rate : 31.250 FPS (1536 SPF)
Bit depth : 16 bits
Compression mode : Lossy
Stream size : 58.4 MiB (10%)
Alignment : Split accross interleaves
Interleave, duration : 42 ms (1.00 video frame)
Interleave, preload duratio : 500 ms
Service kind : Complete Main

Внимание! Раздача ведётся путём добавления новых серий

Внимание! Раздача ведётся путём добавления новых серий; при каждом добавлении создаётся новый торрент. Чтобы начать докачку новой серии, пользователям необходимо сделать следующее:
Остановить скачивание.
Удалить старый торрент у себя из клиента (старые серии удалять не надо).
Скачать новый торрент и запустить его у себя в клиенте вместо старого, при этом указать клиенту путь в старую папку куда и должно происходить скачивание новых серий.
Ваш клиент при этом должен произвести хеширование (проверку) старой папки (если не производит сам — помогите ему сделать это), и будет докачивать только те серии которых у вас ещё нет. Старые серии при этом не удаляются, а продолжают раздаваться!
Eсли вы уже удалили старые серии, то предотвратить повторную закачку старых серий можно, отжав галочку в соответсвующих местах при запуске нового торрента. По возможности, желательно не удалять старые серии как можно дольше чтобы релизёр не столько продолжал раздавать старые серии, а смог сконцентрироваться на новых.

Добавлен 22-01-2018 14:38:57 (6 часов назад)
Размер 597.57 MB (626595840 Bytes)  





Добавить комментарий

Ваш e-mail не будет опубликован. Обязательные поля помечены *

*
*