Падающая вода / Falling Water [02х01 из 10] (2018) WEB-DLRip 720p | OMSKBIRD

Скачать торрент (Doddle Loader)

Зеркало 1 (Media Get)

Информация о фильме
Название: Падающая вода
Оригинальное название: Falling Water
Год выхода: 2018
Жанр: Фантастика, триллер, драма, детектив
Режиссер: Генри Бромелл, Блейк Мастерс
В ролях: Дэвид Аджала, Лиззи Брошере, Уилл Юн Ли, Кай Леннокс, Анна Вуд, Брук Блум, Мелани Николлз-Кинг, Джоди Лонг, Зак Орт и др.

О фильме:
Три незнакомца постепенно осознают, что им снятся отдельные фрагменты общего сна. Каждый из них должен выполнить собственный квест — один ищет пропавшую подружку, второй — потерянного ребенка, третий — лекарство, которое выведет из кататонического ступора его мать, а тем временем все ключи к квестам находятся в их общем сне. Чем глубже они погружаются, тем сильнее осознают, что их истинная миссия намного важнее, чем личные поиски, и что образы, возникшие в их общем сне, возможно, содержат главную подсказку о судьбе мира.


Страна: США
Продолжительность: ~ 44 мин. серия
Перевод: Любительский (многоголосый закадровый) | OMSKBIRD

Файл
Кодек: MPEG-4 AVC
Качество: WEB-DLRip 720p
Видео: AVC, 1280×720 (16:9), 23.976 fps, ~ 3000 kbps
Звук: Аудио rus: AC-3, 48 KHz, 2 ch, 192 kbps | OMSKBIRD records

Семпл

Присутствует реклама!

Скриншоты

Mediainfo:

General
Unique ID : 175707284244091251852500253501181342798 (0x842FFDF4D7F05996A133DBC5663F344E)
Complete name : H:Мои ДокументыВидеоРАЗДАЧИВОДОПАДFalling Water S02 WEB-DLRip 720p (OMSKBIRD)Falling Water S02E01 WEB-DLRip 720p (OMSKBIRD).mkv
Format : Matroska
Format version : Version 2
File size : 963 MiB
Duration : 42 min 32 s
Overall bit rate : 3 165 kb/s
Encoded date : UTC 2018-01-21 21:09:27
Writing application : mkvmerge v4.0.0 (‘The Stars were mine’) сборка от Jun 6 2010 16:18:42
Writing library : libebml v1.0.0 + libmatroska v1.0.0

Video
ID : 1
Format : AVC
Format/Info : Advanced Video Codec
Format profile : [email protected]
Format settings, CABAC : No
Format settings, RefFrames : 3 frames
Format settings, GOP : M=1, N=23
Codec ID : V_MPEG4/ISO/AVC
Duration : 42 min 32 s
Bit rate : 2 910 kb/s
Width : 1 280 pixels
Height : 720 pixels
Display aspect ratio : 16:9
Frame rate mode : Constant
Frame rate : 23.976 (24000/1001) FPS
Standard : NTSC
Color space : YUV
Chroma subsampling : 4:2:0
Bit depth : 8 bits
Scan type : Progressive
Bits/(Pixel*Frame) : 0.132
Stream size : 885 MiB (92%)
Language : English
Default : Yes
Forced : No
Color range : Limited
Color primaries : BT.709
Transfer characteristics : BT.709
Matrix coefficients : BT.709

Audio
ID : 2
Format : AC-3
Format/Info : Audio Coding 3
Format settings, Endianness : Big
Codec ID : A_AC3
Duration : 42 min 32 s
Bit rate mode : Constant
Bit rate : 192 kb/s
Channel(s) : 2 channels
Channel positions : Front: L R
Sampling rate : 48.0 kHz
Frame rate : 31.250 FPS (1536 SPF)
Bit depth : 16 bits
Compression mode : Lossy
Stream size : 58.4 MiB (6%)
Service kind : Complete Main
Default : Yes
Forced : No

Внимание! Раздача ведётся путём добавления новых серий

Внимание! Раздача ведётся путём добавления новых серий; при каждом добавлении создаётся новый торрент. Чтобы начать докачку новой серии, пользователям необходимо сделать следующее:
Остановить скачивание.
Удалить старый торрент у себя из клиента (старые серии удалять не надо).
Скачать новый торрент и запустить его у себя в клиенте вместо старого, при этом указать клиенту путь в старую папку куда и должно происходить скачивание новых серий.
Ваш клиент при этом должен произвести хеширование (проверку) старой папки (если не производит сам — помогите ему сделать это), и будет докачивать только те серии которых у вас ещё нет. Старые серии при этом не удаляются, а продолжают раздаваться!
Eсли вы уже удалили старые серии, то предотвратить повторную закачку старых серий можно, отжав галочку в соответсвующих местах при запуске нового торрента. По возможности, желательно не удалять старые серии как можно дольше чтобы релизёр не столько продолжал раздавать старые серии, а смог сконцентрироваться на новых.

Добавлен 22-01-2018 14:37:44 (7 часов назад)
Размер 962.97 MB (1009749123 Bytes)  





Добавить комментарий

Ваш e-mail не будет опубликован. Обязательные поля помечены *

*
*