Обитель зла: Антология / Resident Evil: Anthology (2002-2016) BDRip-HEVC 1080p от ХиМиК | D, P, P2, A

Скачать торрент (Doddle Loader)

Зеркало 1 (Media Get)

Обитель зла / Resident Evil

Информация о фильме
Название: Обитель зла
Оригинальное название: Resident Evil
Год выхода: 2002
Жанр: ужасы, фантастика, боевик
Режиссер: Пол У. С. Андерсон
В ролях: Милла Йовович, Мишель Родригес, Эрик Мэбиас, Джеймс Пьюрфой, Мартин Крюз, Колин Сэлмон, Райан МакКласки, Оскар Пирс, Индра Ове, Анна Болт

О фильме:
В гигантской подземной лаборатории на волю вырывается опаснейший вирус, мгновенно превращая своих жертв в прожорливых зомби. Достаточно одного их укуса или царапины страшных когтей, чтобы человек стал обезумевшим пожирателем живой плоти.
Военные посылают в секретный комплекс, кишащий ужасными мутировавшими животными и голодными монстрами, группу спецназа, к которой присоединяются очаровательная Элис и отважный полицейский Мэтт. У них есть только три часа, чтобы уничтожить вирус до того, как он распространится по всей Земле…


Страна: Великобритания, Германия, Франция, США
Продолжительность: 01:40:31
Перевод: Дублированный, профессиональный многоголосый, профессиональный двухголосый, авторский

Файл
Кодек: HEVC x265
Качество: BDRip-HEVC 1080p
Видео: 1920×1040 (1,85:1), 8868 Кбит/сек, 0.185 бит/(Пиксели*Кадры), 23,976 кадр/сек (24000/1001), HEVC ([email protected]@High) 8 бит
Звук:
Русская, АС3, 448 Кбит/сек, Front: L C R, Side: L R, LFE, 48,0 КГц (Дубляж)
Русская, АС3, 448 Кбит/сек, Front: L C R, Side: L R, LFE, 48,0 КГц (MVO LDV)
Русская, АС3, 448 Кбит/сек, Front: L C R, Side: L R, LFE, 48,0 КГц (DVO Гланц и Королёва)
Русская, АС3, 448 Кбит/сек, Front: L C R, Side: L R, LFE, 48,0 КГц (AVO Гоблин)
Русская, АС3, 448 Кбит/сек, Front: L C R, Side: L R, LFE, 48,0 КГц (AVO Володарский)
Английская, АС3, 448 Кбит/сек, Front: L C R, Side: L R, LFE, 48,0 КГц (Оригинал)
Субтитры: Русские, английские
Разделение по главам: есть

Семпл

MediaInfo

General
Unique ID : 246373993912475973757686022377246914483 (0xB959E7BDC579C993B9FD667D439977B3)
Complete name : H:HEVC 2Resident Evil1 Resident Evil_2002_BDRip_1080p_(HEVC).mkv
Format : Matroska
Format version : Version 4 / Version 2
File size : 8.07 GiB
Duration : 1 h 40 min
Overall bit rate : 11.5 Mb/s
Encoded date : UTC 2018-01-21 08:28:32
Writing application : mkvmerge v18.0.0 (‘Apricity’) 64-bit
Writing library : libebml v1.3.5 + libmatroska v1.4.8
Cover : Yes
Attachments : cover.png

Video
ID : 1
Format : HEVC
Format/Info : High Efficiency Video Coding
Format profile : [email protected]@High
Codec ID : V_MPEGH/ISO/HEVC
Duration : 1 h 40 min
Bit rate : 8 868 kb/s
Width : 1 920 pixels
Height : 1 040 pixels
Display aspect ratio : 1.85:1
Frame rate mode : Constant
Frame rate : 23.976 (24000/1001) FPS
Color space : YUV
Chroma subsampling : 4:2:0
Bit depth : 8 bits
Bits/(Pixel*Frame) : 0.185
Stream size : 6.23 GiB (77%)
Writing library : x265 2.4+6-fd01abfc7898:(Windows)(GCC 6.3.0)(64 bit) 8bit+10bit+12bit
Encoding settings : cpuid=1173503 / frame-threads=3 / numa-pools=8 / wpp / no-pmode / no-pme / no-psnr / no-ssim / log-level=2 / input-csp=1 / input-res=1920×1040 / interlace=0 / total-frames=0 / level-idc=41 / high-tier=1 / uhd-bd=0 / ref=4 / no-allow-non-conformance / no-repeat-headers / annexb / no-aud / no-hrd / info / hash=0 / no-temporal-layers / open-gop / min-keyint=23 / keyint=240 / bframes=8 / b-adapt=2 / b-pyramid / bframe-bias=0 / rc-lookahead=40 / lookahead-slices=4 / scenecut=40 / no-intra-refresh / ctu=64 / min-cu-size=8 / rect / no-amp / max-tu-size=32 / tu-inter-depth=2 / tu-intra-depth=2 / limit-tu=0 / rdoq-level=2 / dynamic-rd=0.00 / no-ssim-rd / signhide / no-tskip / nr-intra=0 / nr-inter=0 / no-constrained-intra / strong-intra-smoothing / max-merge=3 / limit-refs=2 / limit-modes / me=3 / subme=3 / merange=32 / temporal-mvp / weightp / weightb / no-analyze-src-pics / deblock=-3:-3 / no-sao / no-sao-non-deblock / rd=3 / no-early-skip / rskip / no-fast-intra / no-tskip-fast / no-cu-lossless / no-b-intra / rdpenalty=0 / psy-rd=2.00 / psy-rdoq=1.00 / no-rd-refine / analysis-mode=0 / no-lossless / cbqpoffs=0 / crqpoffs=0 / rc=crf / crf=18.0 / qcomp=0.60 / qpstep=4 / stats-write=0 / stats-read=0 / vbv-maxrate=50000 / vbv-bufsize=50000 / vbv-init=0.9 / crf-max=0.0 / crf-min=0.0 / ipratio=1.40 / pbratio=1.30 / aq-mode=3 / aq-strength=0.90 / cutree / zone-count=1 / zones: / start-frame=135416 / end-frame=144583 / qp=35 / no-strict-cbr / qg-size=32 / no-rc-grain / qpmax=69 / qpmin=0 / sar=0 / overscan=0 / videoformat=5 / range=0 / colorprim=2 / transfer=2 / colormatrix=1 / chromaloc=0 / display-window=0 / max-cll=0,0 / min-luma=0 / max-luma=255 / log2-max-poc-lsb=8 / vui-timing-info / vui-hrd-info / slices=1 / opt-qp-pps / opt-ref-list-length-pps / no-multi-pass-opt-rps / scenecut-bias=0.05 / no-opt-cu-delta-qp / no-aq-motion / no-hdr / no-hdr-opt / no-dhdr10-opt / refine-level=5 / no-limit-sao
Default : Yes
Forced : Yes
Color range : Limited
Matrix coefficients : BT.709

Audio #1
ID : 2
Format : AC-3
Format/Info : Audio Coding 3
Format settings, Endianness : Big
Codec ID : A_AC3
Duration : 1 h 40 min
Bit rate mode : Constant
Bit rate : 448 kb/s
Channel(s) : 6 channels
Channel positions : Front: L C R, Side: L R, LFE
Sampling rate : 48.0 kHz
Frame rate : 31.250 FPS (1536 SPF)
Bit depth : 16 bits
Compression mode : Lossy
Stream size : 322 MiB (4%)
Title : Дубляж
Language : Russian
Service kind : Complete Main
Default : Yes
Forced : No

Audio #2
ID : 3
Format : AC-3
Format/Info : Audio Coding 3
Format settings, Endianness : Big
Codec ID : A_AC3
Duration : 1 h 40 min
Bit rate mode : Constant
Bit rate : 384 kb/s
Channel(s) : 6 channels
Channel positions : Front: L C R, Side: L R, LFE
Sampling rate : 48.0 kHz
Frame rate : 31.250 FPS (1536 SPF)
Bit depth : 16 bits
Compression mode : Lossy
Stream size : 276 MiB (3%)
Title : MVO LDV
Language : Russian
Service kind : Complete Main
Default : No
Forced : No

Audio #3
ID : 4
Format : AC-3
Format/Info : Audio Coding 3
Format settings, Endianness : Big
Codec ID : A_AC3
Duration : 1 h 40 min
Bit rate mode : Constant
Bit rate : 448 kb/s
Channel(s) : 6 channels
Channel positions : Front: L C R, Side: L R, LFE
Sampling rate : 48.0 kHz
Frame rate : 31.250 FPS (1536 SPF)
Bit depth : 16 bits
Compression mode : Lossy
Stream size : 322 MiB (4%)
Title : DVO Гланц и Королёва
Language : Russian
Service kind : Complete Main
Default : No
Forced : No

Audio #4
ID : 5
Format : AC-3
Format/Info : Audio Coding 3
Format settings, Endianness : Big
Codec ID : A_AC3
Duration : 1 h 40 min
Bit rate mode : Constant
Bit rate : 448 kb/s
Channel(s) : 6 channels
Channel positions : Front: L C R, Side: L R, LFE
Sampling rate : 48.0 kHz
Frame rate : 31.250 FPS (1536 SPF)
Bit depth : 16 bits
Compression mode : Lossy
Stream size : 322 MiB (4%)
Title : AVO Гоблин
Language : Russian
Service kind : Complete Main
Default : No
Forced : No

Audio #5
ID : 6
Format : AC-3
Format/Info : Audio Coding 3
Format settings, Endianness : Big
Codec ID : A_AC3
Duration : 1 h 40 min
Bit rate mode : Constant
Bit rate : 448 kb/s
Channel(s) : 6 channels
Channel positions : Front: L C R, Side: L R, LFE
Sampling rate : 48.0 kHz
Frame rate : 31.250 FPS (1536 SPF)
Bit depth : 16 bits
Compression mode : Lossy
Stream size : 322 MiB (4%)
Title : AVO Володарский
Language : Russian
Service kind : Complete Main
Default : No
Forced : No

Audio #6
ID : 7
Format : AC-3
Format/Info : Audio Coding 3
Format settings, Endianness : Big
Codec ID : A_AC3
Duration : 1 h 40 min
Bit rate mode : Constant
Bit rate : 448 kb/s
Channel(s) : 6 channels
Channel positions : Front: L C R, Side: L R, LFE
Sampling rate : 48.0 kHz
Frame rate : 31.250 FPS (1536 SPF)
Bit depth : 16 bits
Compression mode : Lossy
Stream size : 322 MiB (4%)
Title : Оригинал
Language : English
Service kind : Complete Main
Default : No
Forced : No

Text #1
ID : 8
Format : UTF-8
Codec ID : S_TEXT/UTF8
Codec ID/Info : UTF-8 Plain Text
Duration : 1 h 32 min
Bit rate : 52 b/s
Count of elements : 695
Stream size : 35.8 KiB (0%)
Title : RUS
Language : Russian
Default : Yes
Forced : No

Text #2
ID : 9
Format : UTF-8
Codec ID : S_TEXT/UTF8
Codec ID/Info : UTF-8 Plain Text
Duration : 1 h 28 min
Bit rate : 32 b/s
Count of elements : 666
Stream size : 20.9 KiB (0%)
Title : ENG
Language : English
Default : No
Forced : No

Menu
00:00:00.000 : en:(01)00:00:00:000
00:08:22.585 : en:(02)00:08:22:585
00:11:00.409 : en:(03)00:11:00:409
00:19:09.940 : en:(04)00:19:09:940
00:23:49.010 : en:(05)00:23:49:010
00:29:22.469 : en:(06)00:29:22:469
00:37:51.227 : en:(07)00:37:51:227
00:41:14.555 : en:(08)00:41:14:555
00:47:11.829 : en:(09)00:47:11:829
00:52:16.591 : en:(10)00:52:16:591
01:00:47.977 : en:(11)01:00:47:977
01:08:35.694 : en:(12)01:08:35:694
01:12:05.321 : en:(13)01:12:05:321
01:18:33.667 : en:(14)01:18:33:667
01:24:22.348 : en:(15)01:24:22:348
01:30:16.160 : en:(16)01:30:16:160

Скриншоты

Обитель зла 2: Апокалипсис / Resident Evil: Apocalypse(Extended Cut)

Информация о фильме
Название: Обитель зла 2: Апокалипсис
Оригинальное название: Resident Evil: Apocalypse
Год выхода: 2004
Жанр: ужасы, фантастика, боевик
Режиссер: Александр Уитт
В ролях: Милла Йовович, Сиенна Гиллори, Одед Фер, Томас Кречман, Софи Вавасо, Разаак Адоти, Джаред Харрис, Майк Эппс, Сандрин Холт, Мэттью Дж. Тейлор, Зак Уорд, Иэн Глен, Дэйв Николс, Стефен Хэйес, Джеффри Паунсетт, Шон Остин-Ольсен

О фильме:
Действие картины разворачивается на улицах печально известного Ракун-сити, города, контролируемого могущественной корпорацией «Амбрелла». После бактериологической катастрофы все жители стали медленно превращаться в зомби, а те немногочисленные граждане, чей разум ещё не был до конца изъеден ужасным вирусом, доживали свои последние дни в атмосфере страха и желания скорейшей смерти…


Страна: Германия, Франция, Великобритания, Канада, США
Продолжительность: 01:37:48
Перевод: Дублированный, профессиональный двухголосый, авторский

Файл
Кодек: HEVC x265
Качество: BDRip-HEVC 1080p
Видео: 1920×800 (2,40:1), 8187 Кбит/сек, 0.222 бит/(Пиксели*Кадры), 23,976 кадр/сек (24000/1001), HEVC ([email protected]@High) 8 бит
Звук:
Русская, АС3, 384 Кбит/сек, Front: L C R, Side: L R, LFE, 48,0 КГц (Дубляж (без вставок))
Русская, АAC, 192 Кбит/сек, Front: L C R, Side: L R, LFE, 48,0 КГц (Дубляж (Вставки «RussianGuy27»))
Русская, АС3, 384 Кбит/сек, Front: L C R, Side: L R, LFE, 48,0 КГц (DVO Tycoon-Studio (ненармотивная лексика))
Русская, АС3, 384 Кбит/сек, Front: L C R, Side: L R, LFE, 48,0 КГц (AVO Гаврилов)
Русская, АС3, 384 Кбит/сек, Front: L C R, Side: L R, LFE, 48,0 КГц (AVO Живов)
Русская, АС3, 384 Кбит/сек, Front: L C R, Side: L R, LFE, 48,0 КГц (AVO Строев)
Английская, АС3, 384 Кбит/сек, Front: L C R, Side: L R, LFE, 48,0 КГц (Оригинал)
Субтитры: Русские (форсированные, полные), английские
Разделение по главам: есть

Семпл

MediaInfo

General
Unique ID : 234073764860414366987671590491971808034 (0xB018F7A09496EBABA11F65FFE9CE6B22)
Complete name : H:HEVC 2Resident Evil2 Resident Evil_Apocalypse_(Extended Cut)_2004_BDRip_1080p_(HEVC).mkv
Format : Matroska
Format version : Version 4 / Version 2
File size : 7.30 GiB
Duration : 1 h 37 min
Overall bit rate : 10.7 Mb/s
Encoded date : UTC 2018-01-21 08:48:30
Writing application : mkvmerge v18.0.0 (‘Apricity’) 64-bit
Writing library : libebml v1.3.5 + libmatroska v1.4.8
Cover : Yes
Attachments : cover.png

Video
ID : 1
Format : HEVC
Format/Info : High Efficiency Video Coding
Format profile : [email protected]@High
Codec ID : V_MPEGH/ISO/HEVC
Duration : 1 h 37 min
Bit rate : 8 187 kb/s
Width : 1 920 pixels
Height : 800 pixels
Display aspect ratio : 2.40:1
Frame rate mode : Constant
Frame rate : 23.976 (24000/1001) FPS
Color space : YUV
Chroma subsampling : 4:2:0
Bit depth : 8 bits
Bits/(Pixel*Frame) : 0.222
Stream size : 5.59 GiB (77%)
Writing library : x265 2.4+6-fd01abfc7898:(Windows)(GCC 6.3.0)(64 bit) 8bit+10bit+12bit
Encoding settings : cpuid=1173503 / frame-threads=3 / numa-pools=8 / wpp / no-pmode / no-pme / no-psnr / no-ssim / log-level=2 / input-csp=1 / input-res=1920×800 / interlace=0 / total-frames=0 / level-idc=41 / high-tier=1 / uhd-bd=0 / ref=4 / no-allow-non-conformance / no-repeat-headers / annexb / no-aud / no-hrd / info / hash=0 / no-temporal-layers / open-gop / min-keyint=23 / keyint=240 / bframes=10 / b-adapt=2 / b-pyramid / bframe-bias=0 / rc-lookahead=40 / lookahead-slices=4 / scenecut=40 / no-intra-refresh / ctu=64 / min-cu-size=8 / rect / no-amp / max-tu-size=32 / tu-inter-depth=2 / tu-intra-depth=2 / limit-tu=0 / rdoq-level=2 / dynamic-rd=0.00 / no-ssim-rd / signhide / no-tskip / nr-intra=0 / nr-inter=0 / no-constrained-intra / strong-intra-smoothing / max-merge=3 / limit-refs=3 / limit-modes / me=3 / subme=3 / merange=32 / temporal-mvp / weightp / weightb / no-analyze-src-pics / deblock=-3:-3 / no-sao / no-sao-non-deblock / rd=3 / no-early-skip / rskip / no-fast-intra / no-tskip-fast / no-cu-lossless / no-b-intra / rdpenalty=0 / psy-rd=2.00 / psy-rdoq=1.00 / no-rd-refine / analysis-mode=0 / no-lossless / cbqpoffs=0 / crqpoffs=0 / rc=crf / crf=18.0 / qcomp=0.60 / qpstep=4 / stats-write=0 / stats-read=0 / vbv-maxrate=50000 / vbv-bufsize=50000 / vbv-init=0.9 / crf-max=0.0 / crf-min=0.0 / ipratio=1.40 / pbratio=1.30 / aq-mode=3 / aq-strength=0.90 / cutree / zone-count=1 / zones: / start-frame=130930 / end-frame=140686 / qp=35 / no-strict-cbr / qg-size=32 / no-rc-grain / qpmax=69 / qpmin=0 / sar=0 / overscan=0 / videoformat=5 / range=0 / colorprim=2 / transfer=2 / colormatrix=1 / chromaloc=0 / display-window=0 / max-cll=0,0 / min-luma=0 / max-luma=255 / log2-max-poc-lsb=8 / vui-timing-info / vui-hrd-info / slices=1 / opt-qp-pps / opt-ref-list-length-pps / no-multi-pass-opt-rps / scenecut-bias=0.05 / no-opt-cu-delta-qp / no-aq-motion / no-hdr / no-hdr-opt / no-dhdr10-opt / refine-level=5 / no-limit-sao
Default : Yes
Forced : Yes
Color range : Limited
Matrix coefficients : BT.709

Audio #1
ID : 2
Format : AC-3
Format/Info : Audio Coding 3
Format settings, Endianness : Big
Codec ID : A_AC3
Duration : 1 h 37 min
Bit rate mode : Constant
Bit rate : 384 kb/s
Channel(s) : 6 channels
Channel positions : Front: L C R, Side: L R, LFE
Sampling rate : 48.0 kHz
Frame rate : 31.250 FPS (1536 SPF)
Bit depth : 16 bits
Compression mode : Lossy
Stream size : 269 MiB (4%)
Title : Дублированный(без вставок)
Language : Russian
Service kind : Complete Main
Default : No
Forced : No

Audio #2
ID : 3
Format : AAC
Format/Info : Advanced Audio Codec
Format profile : LC
Codec ID : A_AAC-2
Duration : 1 h 37 min
Bit rate : 192 kb/s
Channel(s) : 6 channels
Channel positions : Front: L C R, Side: L R, LFE
Sampling rate : 48.0 kHz
Frame rate : 46.875 FPS (1024 SPF)
Compression mode : Lossy
Delay relative to video : 19 ms
Stream size : 132 MiB (2%)
Title : Дублированный (Вставки «RussianGuy27» на расширенные эпизоды)
Language : Russian
Default : Yes
Forced : No

Audio #3
ID : 4
Format : AC-3
Format/Info : Audio Coding 3
Format settings, Endianness : Big
Codec ID : A_AC3
Duration : 1 h 37 min
Bit rate mode : Constant
Bit rate : 384 kb/s
Channel(s) : 6 channels
Channel positions : Front: L C R, Side: L R, LFE
Sampling rate : 48.0 kHz
Frame rate : 31.250 FPS (1536 SPF)
Bit depth : 16 bits
Compression mode : Lossy
Delay relative to video : 24 ms
Stream size : 269 MiB (4%)
Title : DVO Tycoon-Studio (ненармотивная лексика)
Language : Russian
Service kind : Complete Main
Default : No
Forced : No

Audio #4
ID : 5
Format : AC-3
Format/Info : Audio Coding 3
Format settings, Endianness : Big
Codec ID : A_AC3
Duration : 1 h 37 min
Bit rate mode : Constant
Bit rate : 384 kb/s
Channel(s) : 6 channels
Channel positions : Front: L C R, Side: L R, LFE
Sampling rate : 48.0 kHz
Frame rate : 31.250 FPS (1536 SPF)
Bit depth : 16 bits
Compression mode : Lossy
Stream size : 269 MiB (4%)
Title : AVO Гаврилов
Language : Russian
Service kind : Complete Main
Default : No
Forced : No

Audio #5
ID : 6
Format : AC-3
Format/Info : Audio Coding 3
Format settings, Endianness : Big
Codec ID : A_AC3
Duration : 1 h 37 min
Bit rate mode : Constant
Bit rate : 384 kb/s
Channel(s) : 6 channels
Channel positions : Front: L C R, Side: L R, LFE
Sampling rate : 48.0 kHz
Frame rate : 31.250 FPS (1536 SPF)
Bit depth : 16 bits
Compression mode : Lossy
Stream size : 269 MiB (4%)
Title : AVO Живов
Language : Russian
Service kind : Complete Main
Default : No
Forced : No

Audio #6
ID : 7
Format : AC-3
Format/Info : Audio Coding 3
Format settings, Endianness : Big
Codec ID : A_AC3
Duration : 1 h 37 min
Bit rate mode : Constant
Bit rate : 384 kb/s
Channel(s) : 6 channels
Channel positions : Front: L C R, Side: L R, LFE
Sampling rate : 48.0 kHz
Frame rate : 31.250 FPS (1536 SPF)
Bit depth : 16 bits
Compression mode : Lossy
Stream size : 269 MiB (4%)
Title : AVO Строев
Language : Russian
Service kind : Complete Main
Default : No
Forced : No

Audio #7
ID : 8
Format : AC-3
Format/Info : Audio Coding 3
Format settings, Endianness : Big
Codec ID : A_AC3
Duration : 1 h 37 min
Bit rate mode : Constant
Bit rate : 384 kb/s
Channel(s) : 6 channels
Channel positions : Front: L C R, Side: L R, LFE
Sampling rate : 48.0 kHz
Frame rate : 31.250 FPS (1536 SPF)
Bit depth : 16 bits
Compression mode : Lossy
Stream size : 269 MiB (4%)
Title : Оригинал
Language : English
Service kind : Complete Main
Default : No
Forced : No

Text #1
ID : 9
Format : UTF-8
Codec ID : S_TEXT/UTF8
Codec ID/Info : UTF-8 Plain Text
Duration : 33 min 58 s
Bit rate : 15 b/s
Count of elements : 55
Stream size : 3.79 KiB (0%)
Title : RUS Forced
Language : Russian
Default : Yes
Forced : Yes

Text #2
ID : 10
Format : UTF-8
Codec ID : S_TEXT/UTF8
Codec ID/Info : UTF-8 Plain Text
Duration : 1 h 31 min
Bit rate : 66 b/s
Count of elements : 753
Stream size : 44.5 KiB (0%)
Title : RUS Full
Language : Russian
Default : No
Forced : No

Text #3
ID : 11
Format : UTF-8
Codec ID : S_TEXT/UTF8
Codec ID/Info : UTF-8 Plain Text
Duration : 1 h 31 min
Bit rate : 32 b/s
Count of elements : 715
Stream size : 21.9 KiB (0%)
Title : ENG
Language : English
Default : No
Forced : No

Menu
00:00:00.000 : :00:00:00.000
00:05:56.189 : :00:05:56.189
00:14:52.224 : :00:14:52.224
00:19:37.968 : :00:19:37.968
00:25:21.686 : :00:25:21.686
00:32:38.331 : :00:32:38.331
00:39:07.762 : :00:39:07.762
00:46:13.270 : :00:46:13.270
00:52:21.388 : :00:52:21.388
01:00:25.663 : :01:00:25.663
01:04:40.126 : :01:04:40.126
01:11:08.013 : :01:11:08.013
01:17:12.252 : :01:17:12.252
01:22:05.670 : :01:22:05.670
01:26:26.014 : :01:26:26.014
01:28:28.094 : :01:28:28.094

Скриншоты

Обитель зла 3 / Resident Evil: Extinction

Информация о фильме
Название: Обитель зла 3
Оригинальное название: Resident Evil: Extinction
Год выхода: 2007
Жанр: ужасы, фантастика, боевик
Режиссер: Рассел Малкэй
В ролях: Милла Йовович, Одед Фер, Эли Лартер, Айэйн Глен, Ашанти, Кристофер Иган, Спенсер Лок, Мэттью Мэрсден, Линден Эшби, Джейсон О’Мара

О фильме:
Элис, не раз уже спасавшая мир от смертельных вирусов и неминуемой гибели, вновь взялась за оружие. На этот раз ей предстоит сразиться с корпорацией «Амбрелла», работающей над реализацией зверского антигуманного проекта. Коварные политики и прагматичные ученые стремятся уничтожить людей и заменить их на более «совершенные» создания, заселив Землю неуязвимыми бессмертными клонами…


Страна: Германия, Канада, Франция, Великобритания
Продолжительность: 01:34:06
Перевод: Дублированный, авторский одноголосый

Файл
Кодек: HEVC x265
Качество: BDRip-HEVC 1080p
Видео: 1920×804 (2,40:1), 9070 Кбит/сек, 0.245 бит/(Пиксели*Кадры), 23,976 кадр/сек (24000/1001), HEVC ([email protected]@High) 8 бит
Звук:
Русская, АС3, 448 Кбит/сек, Front: L C R, Side: L R, LFE, 48,0 КГц (Дубляж)
Русская, АС3, 448 Кбит/сек, Front: L C R, Side: L R, LFE, 48,0 КГц (AVO Гаврилов)
Русская, АС3, 448 Кбит/сек, Front: L C R, Side: L R, LFE, 48,0 КГц (AVO Живов)
Русская, АС3, 448 Кбит/сек, Front: L C R, Side: L R, LFE, 48,0 КГц (AVO Строев)
Английская, АС3, 448 Кбит/сек, Front: L C R, Side: L R, LFE, 48,0 КГц (Оригинал)
Субтитры: Русские, английские
Разделение по главам: есть

Семпл

MediaInfo

General
Unique ID : 208331914511113462213925902225358655165 (0x9CBB446AAEBFD4298F2CE57ACB330EBD)
Complete name : H:HEVC 2Resident Evil3 Resident Evil Extinction_2007_BDRip_1080p_(HEVC).mkv
Format : Matroska
Format version : Version 4 / Version 2
File size : 7.44 GiB
Duration : 1 h 34 min
Overall bit rate : 11.3 Mb/s
Encoded date : UTC 2018-01-21 08:57:21
Writing application : mkvmerge v18.0.0 (‘Apricity’) 64-bit
Writing library : libebml v1.3.5 + libmatroska v1.4.8
Cover : Yes
Attachments : cover.png

Video
ID : 1
Format : HEVC
Format/Info : High Efficiency Video Coding
Format profile : [email protected]@High
Codec ID : V_MPEGH/ISO/HEVC
Duration : 1 h 34 min
Bit rate : 9 070 kb/s
Width : 1 920 pixels
Height : 804 pixels
Display aspect ratio : 2.40:1
Frame rate mode : Constant
Frame rate : 23.976 (24000/1001) FPS
Color space : YUV
Chroma subsampling : 4:2:0
Bit depth : 8 bits
Bits/(Pixel*Frame) : 0.245
Stream size : 5.96 GiB (80%)
Writing library : x265 2.4+6-fd01abfc7898:(Windows)(GCC 6.3.0)(64 bit) 8bit+10bit+12bit
Encoding settings : cpuid=1173503 / frame-threads=3 / numa-pools=8 / wpp / no-pmode / no-pme / no-psnr / no-ssim / log-level=2 / input-csp=1 / input-res=1920×804 / interlace=0 / total-frames=0 / level-idc=41 / high-tier=1 / uhd-bd=0 / ref=4 / no-allow-non-conformance / no-repeat-headers / annexb / no-aud / no-hrd / info / hash=0 / no-temporal-layers / open-gop / min-keyint=23 / keyint=240 / bframes=8 / b-adapt=2 / b-pyramid / bframe-bias=0 / rc-lookahead=40 / lookahead-slices=4 / scenecut=40 / no-intra-refresh / ctu=64 / min-cu-size=8 / rect / no-amp / max-tu-size=32 / tu-inter-depth=2 / tu-intra-depth=2 / limit-tu=0 / rdoq-level=2 / dynamic-rd=0.00 / no-ssim-rd / signhide / no-tskip / nr-intra=0 / nr-inter=0 / no-constrained-intra / strong-intra-smoothing / max-merge=3 / limit-refs=2 / limit-modes / me=3 / subme=3 / merange=32 / temporal-mvp / weightp / weightb / no-analyze-src-pics / deblock=-3:-3 / no-sao / no-sao-non-deblock / rd=3 / no-early-skip / rskip / no-fast-intra / no-tskip-fast / no-cu-lossless / no-b-intra / rdpenalty=0 / psy-rd=2.00 / psy-rdoq=1.00 / no-rd-refine / analysis-mode=0 / no-lossless / cbqpoffs=0 / crqpoffs=0 / rc=crf / crf=18.0 / qcomp=0.60 / qpstep=4 / stats-write=0 / stats-read=0 / vbv-maxrate=50000 / vbv-bufsize=50000 / vbv-init=0.9 / crf-max=0.0 / crf-min=0.0 / ipratio=1.40 / pbratio=1.30 / aq-mode=3 / aq-strength=0.90 / cutree / zone-count=1 / zones: / start-frame=126030 / end-frame=135352 / qp=35 / no-strict-cbr / qg-size=32 / no-rc-grain / qpmax=69 / qpmin=0 / sar=0 / overscan=0 / videoformat=5 / range=0 / colorprim=2 / transfer=2 / colormatrix=1 / chromaloc=0 / display-window=0 / max-cll=0,0 / min-luma=0 / max-luma=255 / log2-max-poc-lsb=8 / vui-timing-info / vui-hrd-info / slices=1 / opt-qp-pps / opt-ref-list-length-pps / no-multi-pass-opt-rps / scenecut-bias=0.05 / no-opt-cu-delta-qp / no-aq-motion / no-hdr / no-hdr-opt / no-dhdr10-opt / refine-level=5 / no-limit-sao
Default : Yes
Forced : Yes
Color range : Limited
Matrix coefficients : BT.709

Audio #1
ID : 2
Format : AC-3
Format/Info : Audio Coding 3
Format settings, Endianness : Big
Codec ID : A_AC3
Duration : 1 h 34 min
Bit rate mode : Constant
Bit rate : 448 kb/s
Channel(s) : 6 channels
Channel positions : Front: L C R, Side: L R, LFE
Sampling rate : 48.0 kHz
Frame rate : 31.250 FPS (1536 SPF)
Bit depth : 16 bits
Compression mode : Lossy
Stream size : 302 MiB (4%)
Title : Дубляж
Language : Russian
Service kind : Complete Main
Default : Yes
Forced : No

Audio #2
ID : 3
Format : AC-3
Format/Info : Audio Coding 3
Format settings, Endianness : Big
Codec ID : A_AC3
Duration : 1 h 34 min
Bit rate mode : Constant
Bit rate : 448 kb/s
Channel(s) : 6 channels
Channel positions : Front: L C R, Side: L R, LFE
Sampling rate : 48.0 kHz
Frame rate : 31.250 FPS (1536 SPF)
Bit depth : 16 bits
Compression mode : Lossy
Stream size : 302 MiB (4%)
Title : AVO Гаврилов
Language : Russian
Service kind : Complete Main
Default : No
Forced : No

Audio #3
ID : 4
Format : AC-3
Format/Info : Audio Coding 3
Format settings, Endianness : Big
Codec ID : A_AC3
Duration : 1 h 34 min
Bit rate mode : Constant
Bit rate : 448 kb/s
Channel(s) : 6 channels
Channel positions : Front: L C R, Side: L R, LFE
Sampling rate : 48.0 kHz
Frame rate : 31.250 FPS (1536 SPF)
Bit depth : 16 bits
Compression mode : Lossy
Stream size : 302 MiB (4%)
Title : AVO Живов
Language : Russian
Service kind : Complete Main
Default : No
Forced : No

Audio #4
ID : 5
Format : AC-3
Format/Info : Audio Coding 3
Format settings, Endianness : Big
Codec ID : A_AC3
Duration : 1 h 34 min
Bit rate mode : Constant
Bit rate : 448 kb/s
Channel(s) : 6 channels
Channel positions : Front: L C R, Side: L R, LFE
Sampling rate : 48.0 kHz
Frame rate : 31.250 FPS (1536 SPF)
Bit depth : 16 bits
Compression mode : Lossy
Stream size : 302 MiB (4%)
Title : AVO Строев
Language : Russian
Service kind : Complete Main
Default : No
Forced : No

Audio #5
ID : 6
Format : AC-3
Format/Info : Audio Coding 3
Format settings, Endianness : Big
Codec ID : A_AC3
Duration : 1 h 34 min
Bit rate mode : Constant
Bit rate : 448 kb/s
Channel(s) : 6 channels
Channel positions : Front: L C R, Side: L R, LFE
Sampling rate : 48.0 kHz
Frame rate : 31.250 FPS (1536 SPF)
Bit depth : 16 bits
Compression mode : Lossy
Stream size : 302 MiB (4%)
Title : Оригинал
Language : English
Service kind : Complete Main
Default : No
Forced : No

Text #1
ID : 7
Format : UTF-8
Codec ID : S_TEXT/UTF8
Codec ID/Info : UTF-8 Plain Text
Duration : 1 h 28 min
Bit rate : 47 b/s
Count of elements : 627
Stream size : 30.7 KiB (0%)
Title : RUS
Language : Russian
Default : Yes
Forced : No

Text #2
ID : 8
Format : UTF-8
Codec ID : S_TEXT/UTF8
Codec ID/Info : UTF-8 Plain Text
Duration : 1 h 28 min
Bit rate : 27 b/s
Count of elements : 562
Stream size : 17.8 KiB (0%)
Title : ENG
Language : English
Default : No
Forced : No

Menu
00:00:00.000 : en:(01)00:00:00:000
00:07:32.368 : en:(02)00:07:32:368
00:13:39.318 : en:(03)00:13:39:318
00:18:25.437 : en:(04)00:18:25:437
00:25:13.386 : en:(05)00:25:13:386
00:30:07.806 : en:(06)00:30:07:806
00:32:17.727 : en:(07)00:32:17:727
00:38:53.497 : en:(08)00:38:53:497
00:44:21.784 : en:(09)00:44:21:784
00:50:56.053 : en:(10)00:50:56:053
00:55:23.653 : en:(11)00:55:23:653
01:01:46.160 : en:(12)01:01:46:160
01:08:50.376 : en:(13)01:08:50:376
01:14:42.769 : en:(14)01:14:42:769
01:19:13.248 : en:(15)01:19:13:248
01:24:15.550 : en:(16)01:24:15:550
01:34:04.472 : en:(17)01:34:04:472

Скриншоты

Обитель зла 4: Жизнь после смерти / Resident Evil: Afterlife

Информация о фильме
Название: Обитель зла 4: Жизнь после смерти
Оригинальное название: Resident Evil: Afterlife
Год выхода: 2010
Жанр: ужасы, фантастика, боевик
Режиссер: Пол У. С. Андерсон
В ролях: Милла Йовович, Эли Лартер, Вентворт Миллер, Ким Коутс, Шоун Робертс, Серджо Перис-Менчета, Спенсер Лок, Борис Коджо, Сиенна Гиллори, Кейси Барнфилд

О фильме:
Элис продолжает свой путь в мире, поражённом вирусной инфекцией, превращающей людей в нежить. Героиня ищет оставшихся в живых, чтобы вывести их в безопасное место. Её смертельная битва с корпорацией Амбрелла выходит на новый уровень…

Страна: Великобритания, Германия, Франция, США
Продолжительность: 01:40:31
Перевод: Дублированный, авторский одноголосый

Файл
Кодек: HEVC x265
Качество: BDRip-HEVC 1080p
Видео: 1920×798 (2,40:1), 6059 Кбит/сек, 0.165 бит/(Пиксели*Кадры), 23,976 кадр/сек (24000/1001), HEVC ([email protected]@High) 8 бит
Звук:
Русская, АС3, 384 Кбит/сек, Front: L C R, Side: L R, LFE, 48,0 КГц (Дубляж)
Русская, АС3, 384 Кбит/сек, Front: L C R, Side: L R, LFE, 48,0 КГц (AVO Гаврилов)
Русская, АС3, 384 Кбит/сек, Front: L C R, Side: L R, LFE, 48,0 КГц (AVO Строев)
Английская, АС3, 384 Кбит/сек, Front: L C R, Side: L R, LFE, 48,0 КГц (Оригинал)
Субтитры: Русские (форсированные, полные), английские
Разделение по главам: есть

Семпл

MediaInfo

General
Unique ID : 178946157630846182380511949982323003101 (0x869FC6BE4FD5FE21A95D490EE3514EDD)
Complete name : H:HEVC 2Resident Evil4 Resident Evil_Afterlife_2010_BDRip_1080p_(HEVC).mkv
Format : Matroska
Format version : Version 4 / Version 2
File size : 5.14 GiB
Duration : 1 h 36 min
Overall bit rate : 7 598 kb/s
Encoded date : UTC 2018-01-21 09:08:15
Writing application : mkvmerge v18.0.0 (‘Apricity’) 64-bit
Writing library : libebml v1.3.5 + libmatroska v1.4.8
Cover : Yes
Attachments : cover.png

Video
ID : 1
Format : HEVC
Format/Info : High Efficiency Video Coding
Format profile : [email protected]@High
Codec ID : V_MPEGH/ISO/HEVC
Duration : 1 h 36 min
Bit rate : 6 059 kb/s
Width : 1 920 pixels
Height : 798 pixels
Display aspect ratio : 2.40:1
Frame rate mode : Constant
Frame rate : 23.976 (24000/1001) FPS
Color space : YUV
Chroma subsampling : 4:2:0
Bit depth : 8 bits
Bits/(Pixel*Frame) : 0.165
Stream size : 4.10 GiB (80%)
Writing library : x265 2.4+6-fd01abfc7898:(Windows)(GCC 6.3.0)(64 bit) 8bit+10bit+12bit
Encoding settings : cpuid=1173503 / frame-threads=3 / numa-pools=8 / wpp / no-pmode / no-pme / no-psnr / no-ssim / log-level=2 / input-csp=1 / input-res=1920×798 / interlace=0 / total-frames=0 / level-idc=41 / high-tier=1 / uhd-bd=0 / ref=4 / no-allow-non-conformance / no-repeat-headers / annexb / no-aud / no-hrd / info / hash=0 / no-temporal-layers / open-gop / min-keyint=23 / keyint=240 / bframes=10 / b-adapt=2 / b-pyramid / bframe-bias=0 / rc-lookahead=40 / lookahead-slices=4 / scenecut=40 / no-intra-refresh / ctu=64 / min-cu-size=8 / rect / no-amp / max-tu-size=32 / tu-inter-depth=2 / tu-intra-depth=2 / limit-tu=0 / rdoq-level=2 / dynamic-rd=0.00 / no-ssim-rd / signhide / no-tskip / nr-intra=0 / nr-inter=0 / no-constrained-intra / strong-intra-smoothing / max-merge=3 / limit-refs=3 / limit-modes / me=3 / subme=3 / merange=32 / temporal-mvp / weightp / weightb / no-analyze-src-pics / deblock=-3:-3 / no-sao / no-sao-non-deblock / rd=3 / no-early-skip / rskip / no-fast-intra / no-tskip-fast / no-cu-lossless / no-b-intra / rdpenalty=0 / psy-rd=2.00 / psy-rdoq=1.00 / no-rd-refine / analysis-mode=0 / no-lossless / cbqpoffs=0 / crqpoffs=0 / rc=crf / crf=18.0 / qcomp=0.60 / qpstep=4 / stats-write=0 / stats-read=0 / vbv-maxrate=50000 / vbv-bufsize=50000 / vbv-init=0.9 / crf-max=0.0 / crf-min=0.0 / ipratio=1.40 / pbratio=1.30 / aq-mode=3 / aq-strength=0.90 / cutree / zone-count=0 / no-strict-cbr / qg-size=32 / no-rc-grain / qpmax=69 / qpmin=0 / sar=0 / overscan=0 / videoformat=5 / range=0 / colorprim=2 / transfer=2 / colormatrix=1 / chromaloc=0 / display-window=0 / max-cll=0,0 / min-luma=0 / max-luma=255 / log2-max-poc-lsb=8 / vui-timing-info / vui-hrd-info / slices=1 / opt-qp-pps / opt-ref-list-length-pps / no-multi-pass-opt-rps / scenecut-bias=0.05 / no-opt-cu-delta-qp / no-aq-motion / no-hdr / no-hdr-opt / no-dhdr10-opt / refine-level=5 / no-limit-sao
Default : Yes
Forced : Yes
Color range : Limited
Matrix coefficients : BT.709

Audio #1
ID : 2
Format : AC-3
Format/Info : Audio Coding 3
Format settings, Endianness : Big
Codec ID : A_AC3
Duration : 1 h 36 min
Bit rate mode : Constant
Bit rate : 384 kb/s
Channel(s) : 6 channels
Channel positions : Front: L C R, Side: L R, LFE
Sampling rate : 48.0 kHz
Frame rate : 31.250 FPS (1536 SPF)
Bit depth : 16 bits
Compression mode : Lossy
Stream size : 266 MiB (5%)
Title : Дубляж
Language : Russian
Service kind : Complete Main
Default : Yes
Forced : No

Audio #2
ID : 3
Format : AC-3
Format/Info : Audio Coding 3
Format settings, Endianness : Big
Codec ID : A_AC3
Duration : 1 h 36 min
Bit rate mode : Constant
Bit rate : 384 kb/s
Channel(s) : 6 channels
Channel positions : Front: L C R, Side: L R, LFE
Sampling rate : 48.0 kHz
Frame rate : 31.250 FPS (1536 SPF)
Bit depth : 16 bits
Compression mode : Lossy
Stream size : 266 MiB (5%)
Title : AVO Гаврилов
Language : Russian
Service kind : Complete Main
Default : No
Forced : No

Audio #3
ID : 4
Format : AC-3
Format/Info : Audio Coding 3
Format settings, Endianness : Big
Codec ID : A_AC3
Duration : 1 h 36 min
Bit rate mode : Constant
Bit rate : 384 kb/s
Channel(s) : 6 channels
Channel positions : Front: L C R, Side: L R, LFE
Sampling rate : 48.0 kHz
Frame rate : 31.250 FPS (1536 SPF)
Bit depth : 16 bits
Compression mode : Lossy
Stream size : 266 MiB (5%)
Title : AVO Строев
Language : Russian
Service kind : Complete Main
Default : No
Forced : No

Audio #4
ID : 5
Format : AC-3
Format/Info : Audio Coding 3
Format settings, Endianness : Big
Codec ID : A_AC3
Duration : 1 h 36 min
Bit rate mode : Constant
Bit rate : 384 kb/s
Channel(s) : 6 channels
Channel positions : Front: L C R, Side: L R, LFE
Sampling rate : 48.0 kHz
Frame rate : 31.250 FPS (1536 SPF)
Bit depth : 16 bits
Compression mode : Lossy
Stream size : 266 MiB (5%)
Title : Оригинал
Language : English
Service kind : Complete Main
Default : No
Forced : No

Text #1
ID : 6
Format : UTF-8
Codec ID : S_TEXT/UTF8
Codec ID/Info : UTF-8 Plain Text
Duration : 1 min 54 s
Bit rate : 42 b/s
Count of elements : 16
Stream size : 600 Bytes (0%)
Title : RUS Forced
Language : Russian
Default : Yes
Forced : Yes

Text #2
ID : 7
Format : UTF-8
Codec ID : S_TEXT/UTF8
Codec ID/Info : UTF-8 Plain Text
Duration : 1 h 29 min
Bit rate : 51 b/s
Count of elements : 632
Stream size : 34.1 KiB (0%)
Title : RUS Full
Language : Russian
Default : No
Forced : No

Text #3
ID : 8
Format : UTF-8
Codec ID : S_TEXT/UTF8
Codec ID/Info : UTF-8 Plain Text
Duration : 1 h 32 min
Bit rate : 26 b/s
Count of elements : 652
Stream size : 18.2 KiB (0%)
Title : ENG
Language : English
Default : No
Forced : No

Menu
00:00:00.000 : en:(01)00:00:00:000
00:07:51.304 : en:(02)00:07:51:304
00:14:04.552 : en:(03)00:14:04:552
00:19:21.368 : en:(04)00:19:21:368
00:25:23.939 : en:(05)00:25:23:939
00:30:07.222 : en:(06)00:30:07:222
00:35:08.189 : en:(07)00:35:08:189
00:41:51.091 : en:(08)00:41:51:091
00:47:07.241 : en:(09)00:47:07:241
00:53:41.468 : en:(10)00:53:41:468
01:00:53.941 : en:(11)01:00:53:941
01:07:58.532 : en:(12)01:07:58:532
01:14:07.985 : en:(13)01:14:07:985
01:17:54.711 : en:(14)01:17:54:711
01:23:39.014 : en:(15)01:23:39:014
01:27:24.489 : en:(16)01:27:24:489

Скриншоты

Обитель зла: Возмездие / Resident Evil: Retribution

Информация о фильме
Название: Обитель зла: Возмездие
Оригинальное название: Resident Evil: Retribution
Год выхода: 2012
Жанр: ужасы, фантастика, боевик
Режиссер: Пол У. С. Андерсон
В ролях: Милла Йовович, Сиенна Гиллори, Мишель Родригес, Ариана Энджинир, Ли Бинбин, Борис Коджо, Йохан Урб, Робин Касянов, Кевин Дюран, Офилио Портильо

О фильме:
Смертельный T-вирус, созданный в лабораториях корпорации «Амбрелла», продолжает захватывать Землю, превращая мировое население в легионы пожирающих плоть зомби. Последняя надежда человечества Элис внедряется в самое сердце самой тайной исследовательской базы корпорации и узнает еще больше о собственном таинственном прошлом. Не имея путей к отступлению, Элис продолжает искать виновных в глобальной катастрофе. Вызов, который она принимала в Токио, Нью-Йорке, Вашингтоне и даже в Москве, приводит ее в итоге к взрывающему сознание откровению, которое заставит ее переосмыслить все, что она полагала правдой. С помощью новых союзников и старых друзей, Элис будет сражаться за выживание и убегать из враждебного мира. Отсчет времени начат…

Страна: Великобритания, Германия, Франция, США
Продолжительность: 01:35:37
Перевод: Дублированный, авторский одноголосый

Файл
Кодек: HEVC x265
Качество: BDRip-HEVC 1080p
Видео: 1920×800 (2,40:1), 6764 Кбит/сек, 0.184 бит/(Пиксели*Кадры), 23,976 кадр/сек (24000/1001), HEVC ([email protected]@High) 8 бит
Звук:
Русская, АС3, 384 Кбит/сек, Front: L C R, Side: L R, LFE, 48,0 КГц (Дубляж)
Русская, АС3, 384 Кбит/сек, Front: L C R, Side: L R, LFE, 48,0 КГц (AVO Гаврилов)
Английская, АС3, 384 Кбит/сек, Front: L C R, Side: L R, LFE, 48,0 КГц (Оригинал)
Субтитры: Русские, английские
Разделение по главам: есть

Семпл

MediaInfo

General
Unique ID : 173349062758304262971346033938492095494 (0x8269D0A911535B81877E77AA0018FC06)
Complete name : H:HEVC 2Resident Evil5 Resident Evil_Retribution_2012_BDRip_1080p_(HEVC).mkv
Format : Matroska
Format version : Version 4 / Version 2
File size : 5.29 GiB
Duration : 1 h 35 min
Overall bit rate : 7 919 kb/s
Encoded date : UTC 2018-01-21 09:15:14
Writing application : mkvmerge v18.0.0 (‘Apricity’) 64-bit
Writing library : libebml v1.3.5 + libmatroska v1.4.8
Cover : Yes
Attachments : cover.png

Video
ID : 1
Format : HEVC
Format/Info : High Efficiency Video Coding
Format profile : [email protected]@High
Codec ID : V_MPEGH/ISO/HEVC
Duration : 1 h 35 min
Bit rate : 6 764 kb/s
Width : 1 920 pixels
Height : 800 pixels
Display aspect ratio : 2.40:1
Frame rate mode : Constant
Frame rate : 23.976 (24000/1001) FPS
Color space : YUV
Chroma subsampling : 4:2:0
Bit depth : 8 bits
Bits/(Pixel*Frame) : 0.184
Stream size : 4.52 GiB (85%)
Writing library : x265 2.4+6-fd01abfc7898:(Windows)(GCC 6.3.0)(64 bit) 8bit+10bit+12bit
Encoding settings : cpuid=1173503 / frame-threads=3 / numa-pools=8 / wpp / no-pmode / no-pme / no-psnr / no-ssim / log-level=2 / input-csp=1 / input-res=1920×800 / interlace=0 / total-frames=0 / level-idc=41 / high-tier=1 / uhd-bd=0 / ref=4 / no-allow-non-conformance / no-repeat-headers / annexb / no-aud / no-hrd / info / hash=0 / no-temporal-layers / open-gop / min-keyint=23 / keyint=240 / bframes=9 / b-adapt=2 / b-pyramid / bframe-bias=0 / rc-lookahead=40 / lookahead-slices=4 / scenecut=40 / no-intra-refresh / ctu=64 / min-cu-size=8 / rect / no-amp / max-tu-size=32 / tu-inter-depth=3 / tu-intra-depth=3 / limit-tu=0 / rdoq-level=2 / dynamic-rd=0.00 / no-ssim-rd / signhide / no-tskip / nr-intra=0 / nr-inter=0 / no-constrained-intra / strong-intra-smoothing / max-merge=3 / limit-refs=3 / limit-modes / me=3 / subme=6 / merange=32 / temporal-mvp / weightp / weightb / no-analyze-src-pics / deblock=-3:-3 / no-sao / no-sao-non-deblock / rd=4 / no-early-skip / rskip / no-fast-intra / no-tskip-fast / no-cu-lossless / no-b-intra / rdpenalty=0 / psy-rd=1.00 / psy-rdoq=5.00 / no-rd-refine / analysis-mode=0 / no-lossless / cbqpoffs=0 / crqpoffs=0 / rc=crf / crf=18.0 / qcomp=0.60 / qpstep=4 / stats-write=0 / stats-read=0 / vbv-maxrate=50000 / vbv-bufsize=50000 / vbv-init=0.9 / crf-max=0.0 / crf-min=0.0 / ipratio=1.40 / pbratio=1.30 / aq-mode=3 / aq-strength=0.90 / cutree / zone-count=1 / zones: / start-frame=123132 / end-frame=137565 / qp=35 / no-strict-cbr / qg-size=32 / no-rc-grain / qpmax=69 / qpmin=0 / sar=0 / overscan=0 / videoformat=5 / range=0 / colorprim=2 / transfer=2 / colormatrix=1 / chromaloc=0 / display-window=0 / max-cll=0,0 / min-luma=0 / max-luma=255 / log2-max-poc-lsb=8 / vui-timing-info / vui-hrd-info / slices=1 / opt-qp-pps / opt-ref-list-length-pps / no-multi-pass-opt-rps / scenecut-bias=0.05 / no-opt-cu-delta-qp / no-aq-motion / no-hdr / no-hdr-opt / no-dhdr10-opt / refine-level=5 / no-limit-sao
Default : Yes
Forced : Yes
Color range : Limited
Matrix coefficients : BT.709

Audio #1
ID : 2
Format : AC-3
Format/Info : Audio Coding 3
Format settings, Endianness : Big
Codec ID : A_AC3
Duration : 1 h 35 min
Bit rate mode : Constant
Bit rate : 384 kb/s
Channel(s) : 6 channels
Channel positions : Front: L C R, Side: L R, LFE
Sampling rate : 48.0 kHz
Frame rate : 31.250 FPS (1536 SPF)
Bit depth : 16 bits
Compression mode : Lossy
Stream size : 263 MiB (5%)
Title : Дубляж
Language : Russian
Service kind : Complete Main
Default : Yes
Forced : No

Audio #2
ID : 3
Format : AC-3
Format/Info : Audio Coding 3
Format settings, Endianness : Big
Codec ID : A_AC3
Duration : 1 h 35 min
Bit rate mode : Constant
Bit rate : 384 kb/s
Channel(s) : 6 channels
Channel positions : Front: L C R, Side: L R, LFE
Sampling rate : 48.0 kHz
Frame rate : 31.250 FPS (1536 SPF)
Bit depth : 16 bits
Compression mode : Lossy
Stream size : 263 MiB (5%)
Title : AVO Гаврилов
Language : Russian
Service kind : Complete Main
Default : No
Forced : No

Audio #3
ID : 4
Format : AC-3
Format/Info : Audio Coding 3
Format settings, Endianness : Big
Codec ID : A_AC3
Duration : 1 h 35 min
Bit rate mode : Constant
Bit rate : 384 kb/s
Channel(s) : 6 channels
Channel positions : Front: L C R, Side: L R, LFE
Sampling rate : 48.0 kHz
Frame rate : 31.250 FPS (1536 SPF)
Bit depth : 16 bits
Compression mode : Lossy
Stream size : 263 MiB (5%)
Title : Оригинал
Language : English
Service kind : Complete Main
Default : No
Forced : No

Text #1
ID : 5
Format : UTF-8
Codec ID : S_TEXT/UTF8
Codec ID/Info : UTF-8 Plain Text
Duration : 1 h 23 min
Bit rate : 41 b/s
Count of elements : 627
Stream size : 25.5 KiB (0%)
Title : RUS
Language : Russian
Default : Yes
Forced : No

Text #2
ID : 6
Format : UTF-8
Codec ID : S_TEXT/UTF8
Codec ID/Info : UTF-8 Plain Text
Duration : 1 h 20 min
Bit rate : 26 b/s
Count of elements : 609
Stream size : 15.5 KiB (0%)
Title : ENG
Language : English
Default : No
Forced : No

Menu
00:00:00.000 : en:(01)00:00:00:000
00:07:43.045 : en:(02)00:07:43:045
00:14:32.538 : en:(03)00:14:32:538
00:21:38.839 : en:(04)00:21:38:839
00:25:39.329 : en:(05)00:25:39:329
00:29:31.186 : en:(06)00:29:31:186
00:34:16.846 : en:(07)00:34:16:846
00:39:14.769 : en:(08)00:39:14:769
00:45:29.435 : en:(09)00:45:29:435
00:50:27.441 : en:(10)00:50:27:441
00:54:42.070 : en:(11)00:54:42:070
01:00:14.861 : en:(12)01:00:14:861
01:05:38.476 : en:(13)01:05:38:476
01:11:22.903 : en:(14)01:11:22:903
01:16:15.571 : en:(15)01:16:15:571
01:21:29.384 : en:(16)01:21:29:384

Скриншоты

Обитель зла: Последняя глава / Resident Evil: The Final Chapter

Информация о фильме
Название: Обитель зла: Последняя глава
Оригинальное название: Resident Evil: The Final Chapter
Год выхода: 2016
Жанр: ужасы, фантастика, боевик
Режиссер: Пол У. С. Андерсон
В ролях: Милла Йовович, Иэн Глен, Эли Лартер, Шон Робертс, Оуэн Мэкен, Фрайзер Джеймс, Руби Роуз, Уильям Леви, Рола, Эвер Андерсон

О фильме:
Действия фильма разворачиваются с того момента, на котором закончилась предыдущая часть. После того как Вескер предал Элис в Вашингтоне, конец истории человечества стал еще ближе. Элис — последняя надежда на спасение мира. Она должна вернуться к точке отсчета, туда, где все и началось — город Раккун-Сити, где корпорация «Амбрелла» готовится к финальной атаке по тем, кому удалось выжить.
В гонке со временем Элис вооружится до зубов и объединится с друзьями и теми, кого не ожидала увидеть в роли своих союзников. Вместе они будут биться против армии мертвецов и новых чудовищных мутантов. Находясь под угрозой потери своих способностей и готовясь к неминуемой атаке корпорации, Элис столкнется с еще более трудными проблемами, а человечество тем временем будет находиться на грани гибели.

Страна: Франция, Германия, Канада, Австралия
Продолжительность: 01:46:40
Перевод: Дублированный

Файл
Кодек: HEVC x265
Качество: BDRip-HEVC 1080p
Видео: 1920×800 (2,40:1), 4050 Кбит/сек, 0.110 бит/(Пиксели*Кадры), 23,976 кадр/сек (24000/1001), HEVC ([email protected]@High) 8 бит
Звук:
Русская, АС3, 448 Кбит/сек, Front: L C R, Side: L R, LFE, 48,0 КГц (Дубляж)
Английская, АС3, 448 Кбит/сек, Front: L C R, Side: L R, LFE, 48,0 КГц (Оригинал)
Субтитры: Русские, английские
Разделение по главам: есть

Семпл

MediaInfo

General
Unique ID : 255142443406479709094286466699694708190 (0xBFF2A5ADDAE0153090938CFC0A2015DE)
Complete name : H:HEVC 2Resident Evil6 Resident Evil_TheFinalChapter_2016_BDRip_1080p_(HEVC).mkv
Format : Matroska
Format version : Version 4 / Version 2
File size : 3.69 GiB
Duration : 1 h 46 min
Overall bit rate : 4 949 kb/s
Encoded date : UTC 2018-01-21 09:43:13
Writing application : mkvmerge v18.0.0 (‘Apricity’) 64-bit
Writing library : libebml v1.3.5 + libmatroska v1.4.8
Cover : Yes
Attachments : cover.png

Video
ID : 1
Format : HEVC
Format/Info : High Efficiency Video Coding
Format profile : [email protected]@High
Codec ID : V_MPEGH/ISO/HEVC
Duration : 1 h 46 min
Bit rate : 4 050 kb/s
Width : 1 920 pixels
Height : 800 pixels
Display aspect ratio : 2.40:1
Frame rate mode : Constant
Frame rate : 23.976 (24000/1001) FPS
Color space : YUV
Chroma subsampling : 4:2:0
Bit depth : 8 bits
Bits/(Pixel*Frame) : 0.110
Stream size : 3.02 GiB (82%)
Writing library : x265 2.4+6-fd01abfc7898:(Windows)(GCC 6.3.0)(64 bit) 8bit+10bit+12bit
Encoding settings : cpuid=1173503 / frame-threads=3 / numa-pools=8 / wpp / no-pmode / no-pme / no-psnr / no-ssim / log-level=2 / input-csp=1 / input-res=1920×800 / interlace=0 / total-frames=0 / level-idc=41 / high-tier=1 / uhd-bd=0 / ref=4 / no-allow-non-conformance / no-repeat-headers / annexb / no-aud / no-hrd / info / hash=0 / no-temporal-layers / open-gop / min-keyint=23 / keyint=240 / bframes=10 / b-adapt=2 / b-pyramid / bframe-bias=0 / rc-lookahead=40 / lookahead-slices=4 / scenecut=40 / no-intra-refresh / ctu=64 / min-cu-size=8 / rect / no-amp / max-tu-size=32 / tu-inter-depth=3 / tu-intra-depth=3 / limit-tu=0 / rdoq-level=2 / dynamic-rd=0.00 / no-ssim-rd / signhide / no-tskip / nr-intra=0 / nr-inter=0 / no-constrained-intra / strong-intra-smoothing / max-merge=3 / limit-refs=3 / limit-modes / me=3 / subme=6 / merange=32 / temporal-mvp / weightp / weightb / no-analyze-src-pics / deblock=-3:-3 / no-sao / no-sao-non-deblock / rd=4 / no-early-skip / rskip / no-fast-intra / no-tskip-fast / no-cu-lossless / no-b-intra / rdpenalty=0 / psy-rd=1.00 / psy-rdoq=5.00 / no-rd-refine / analysis-mode=0 / no-lossless / cbqpoffs=0 / crqpoffs=0 / rc=crf / crf=18.0 / qcomp=0.60 / qpstep=4 / stats-write=0 / stats-read=0 / vbv-maxrate=50000 / vbv-bufsize=50000 / vbv-init=0.9 / crf-max=0.0 / crf-min=0.0 / ipratio=1.40 / pbratio=1.30 / aq-mode=3 / aq-strength=0.90 / cutree / zone-count=1 / zones: / start-frame=140952 / end-frame=153456 / qp=35 / no-strict-cbr / qg-size=32 / no-rc-grain / qpmax=69 / qpmin=0 / sar=0 / overscan=0 / videoformat=5 / range=0 / colorprim=2 / transfer=2 / colormatrix=1 / chromaloc=0 / display-window=0 / max-cll=0,0 / min-luma=0 / max-luma=255 / log2-max-poc-lsb=8 / vui-timing-info / vui-hrd-info / slices=1 / opt-qp-pps / opt-ref-list-length-pps / no-multi-pass-opt-rps / scenecut-bias=0.05 / no-opt-cu-delta-qp / no-aq-motion / no-hdr / no-hdr-opt / no-dhdr10-opt / refine-level=5 / no-limit-sao
Default : Yes
Forced : Yes
Color range : Limited
Matrix coefficients : BT.709

Audio #1
ID : 2
Format : AC-3
Format/Info : Audio Coding 3
Format settings, Endianness : Big
Codec ID : A_AC3
Duration : 1 h 46 min
Bit rate mode : Constant
Bit rate : 448 kb/s
Channel(s) : 6 channels
Channel positions : Front: L C R, Side: L R, LFE
Sampling rate : 48.0 kHz
Frame rate : 31.250 FPS (1536 SPF)
Bit depth : 16 bits
Compression mode : Lossy
Stream size : 342 MiB (9%)
Title : Дубляж
Language : Russian
Service kind : Complete Main
Default : Yes
Forced : No

Audio #2
ID : 3
Format : AC-3
Format/Info : Audio Coding 3
Format settings, Endianness : Big
Codec ID : A_AC3
Duration : 1 h 46 min
Bit rate mode : Constant
Bit rate : 448 kb/s
Channel(s) : 6 channels
Channel positions : Front: L C R, Side: L R, LFE
Sampling rate : 48.0 kHz
Frame rate : 31.250 FPS (1536 SPF)
Bit depth : 16 bits
Compression mode : Lossy
Stream size : 342 MiB (9%)
Title : Оригинал
Language : English
Service kind : Complete Main
Default : No
Forced : No

Text #1
ID : 4
Format : UTF-8
Codec ID : S_TEXT/UTF8
Codec ID/Info : UTF-8 Plain Text
Duration : 1 h 45 min
Bit rate : 2 b/s
Count of elements : 38
Stream size : 1.66 KiB (0%)
Title : RUS Forced
Language : Russian
Default : Yes
Forced : Yes

Text #2
ID : 5
Format : UTF-8
Codec ID : S_TEXT/UTF8
Codec ID/Info : UTF-8 Plain Text
Duration : 1 h 45 min
Bit rate : 47 b/s
Count of elements : 846
Stream size : 36.3 KiB (0%)
Title : RUS
Language : Russian
Default : No
Forced : No

Text #3
ID : 6
Format : UTF-8
Codec ID : S_TEXT/UTF8
Codec ID/Info : UTF-8 Plain Text
Duration : 1 h 45 min
Bit rate : 31 b/s
Count of elements : 818
Stream size : 24.3 KiB (0%)
Title : ENG
Language : English
Default : No
Forced : No

Menu
00:00:00.000 : en:Chapter 01
00:05:39.339 : en:Chapter 02
00:11:18.177 : en:Chapter 03
00:17:00.102 : en:Chapter 04
00:22:36.146 : en:Chapter 05
00:27:21.640 : en:Chapter 06
00:33:38.474 : en:Chapter 07
00:40:47.820 : en:Chapter 08
00:46:36.126 : en:Chapter 09
00:53:18.778 : en:Chapter 10
01:03:18.669 : en:Chapter 11
01:10:47.826 : en:Chapter 12
01:15:37.574 : en:Chapter 13
01:22:57.806 : en:Chapter 14
01:28:32.765 : en:Chapter 15
01:35:07.159 : en:Chapter 16

Скриншоты

Релиз от: от XuMuK

Добавлен 21-01-2018 16:13:48 (11 секунду назад)
Размер 36.92 GB (39645367914 Bytes)  





Добавить комментарий

Ваш e-mail не будет опубликован. Обязательные поля помечены *

*
*