Обет молчания / Acts of Vengeance (2017) BDRip 1080p от ExKinoRay | iTunes

Скачать торрент (Doddle Loader)

Зеркало 1 (Media Get)

Информация о фильме
Название: Обет молчания
Оригинальное название: Acts of Vengeance
Год выхода: 2017
Жанр: Боевик, драма
Режиссер: Айзек Флорентайн
В ролях: Антонио Бандерас, Кристина Серафини, Атанас Сребрев, Карл Урбан, Пас Вега, Роберт Форстер, Лиллиэн Бланкеншип, Марк Смит, Дэвид Сакурай, Айзек Флорентайн

О фильме:
Главное оружие успешного адвоката Фрэнка ‒ красноречие, благодаря которому он может выиграть любое дело. Но это для него не самое важное: больше всего на свете Фрэнк дорожит своей семьей, женой и дочерью. Однажды неизвестные убивают его родственников, после чего миролюбивый и сверхобщительный адвокат меняется коренным образом. Фрэнк дает обет молчания, чем лишает себя своего главного преимущества и источника заработка. Он начинает много и усердно тренироваться, чтобы разыскать и отомстить тем, кто лишил его семьи.

Страна: Болгария
Студия: Millennium Media, Nu Boyana Film Studios
Продолжительность: 01:27:20
Перевод: Дублированный | iTunes

Файл
Качество: BDRip 1080p
Видео: MPEG-4 AVC, 1920×1040, 14.3 Mbit/s, 23.976 fps
Звук:
Аудио #01: 48 kHz, AC3, 5.1, 384 Kbps | Дублированный | iTunes | RUS |
Аудио #02: 48 kHz, DTS, 5.1, 1510 Kbps | Оригинал | ENG |
Субтитры: Русские (full), английские

MI

General
Unique ID : 92711266653317086707768031222653870925 (0x45BF8A5BC7F9EA74CB9CA07CA29D634D)
Complete name : G:VideoSSDActs.Of.Vengeance.2017.BDRip.1080p.ExKinoRay.mkv
Format : Matroska
Format version : Version 4 / Version 2
File size : 9.88 GiB
Duration : 1 h 27 min
Overall bit rate : 16.2 Mb/s
Movie name : Acts Of Vengeance 2017 from ExKinoRay
Encoded date : UTC 2018-01-21 22:40:28
Writing application : mkvmerge v20.0.0 (‘I Am The Sun’) 64-bit
Writing library : libebml v1.3.5 + libmatroska v1.4.8

Video
ID : 1
Format : AVC
Format/Info : Advanced Video Codec
Format profile : [email protected]
Format settings : CABAC / 4 Ref Frames
Format settings, CABAC : Yes
Format settings, ReFrames : 4 frames
Codec ID : V_MPEG4/ISO/AVC
Duration : 1 h 27 min
Bit rate : 14.3 Mb/s
Width : 1 920 pixels
Height : 1 040 pixels
Display aspect ratio : 1.85:1
Frame rate mode : Constant
Frame rate : 23.976 (24000/1001) FPS
Color space : YUV
Chroma subsampling : 4:2:0
Bit depth : 8 bits
Scan type : Progressive
Bits/(Pixel*Frame) : 0.299
Stream size : 8.72 GiB (88%)
Writing library : x264 core 152 r2851+58 429492e t_mod_Custom ([email protected] X86_64)
Encoding settings : cabac=1 / ref=4 / deblock=1:-3:-3 / analyse=0x3:0x133 / me=umh / subme=10 / psy=1 / fade_compensate=0.00 / psy_rd=1.00:0.00 / mixed_ref=1 / me_range=64 / chroma_me=1 / trellis=2 / 8x8dct=1 / cqm=0 / deadzone=21,11 / fast_pskip=0 / chroma_qp_offset=-2 / threads=24 / lookahead_threads=4 / sliced_threads=0 / nr=0 / decimate=0 / interlaced=0 / bluray_compat=0 / constrained_intra=0 / fgo=0 / bframes=8 / b_pyramid=2 / b_adapt=2 / b_bias=0 / direct=3 / weightb=1 / open_gop=0 / weightp=2 / keyint=250 / keyint_min=23 / scenecut=40 / intra_refresh=0 / rc_lookahead=60 / rc=crf / mbtree=0 / crf=17.1000 / qcomp=0.65 / qpmin=0:0:0 / qpmax=69:69:69 / qpstep=4 / vbv_maxrate=62500 / vbv_bufsize=78125 / crf_max=0.0 / nal_hrd=none / filler=0 / ip_ratio=1.30 / pb_ratio=1.20 / aq=3:0.80 / aq-sensitivity=10.00 / aq-factor=1.00:1.00:1.00 / aq2=0 / aq3=0 / zones=26,929,crf=13/7328,7581,crf=13/32176,33236,crf=13
Language : English
Default : Yes
Forced : No

Audio #1
ID : 2
Format : AC-3
Format/Info : Audio Coding 3
Codec ID : A_AC3
Duration : 1 h 27 min
Bit rate mode : Constant
Bit rate : 384 kb/s
Channel(s) : 6 channels
Channel positions : Front: L C R, Side: L R, LFE
Sampling rate : 48.0 kHz
Frame rate : 31.250 FPS (1536 SPF)
Bit depth : 16 bits
Compression mode : Lossy
Stream size : 240 MiB (2%)
Title : iTunes
Language : Russian
Service kind : Complete Main
Default : Yes
Forced : No

Audio #2
ID : 3
Format : DTS
Format/Info : Digital Theater Systems
Codec ID : A_DTS
Duration : 1 h 27 min
Bit rate mode : Constant
Bit rate : 1 509 kb/s
Channel(s) : 6 channels
Channel positions : Front: L C R, Side: L R, LFE
Sampling rate : 48.0 kHz
Frame rate : 93.750 FPS (512 SPF)
Bit depth : 24 bits
Compression mode : Lossy
Stream size : 943 MiB (9%)
Title : Original
Language : English
Default : No
Forced : No

Text #1
ID : 4
Format : UTF-8
Codec ID : S_TEXT/UTF8
Codec ID/Info : UTF-8 Plain Text
Duration : 1 h 26 min
Bit rate : 46 b/s
Count of elements : 551
Stream size : 29.6 KiB (0%)
Title : Full
Language : Russian
Default : No
Forced : No

Text #2
ID : 5
Format : UTF-8
Codec ID : S_TEXT/UTF8
Codec ID/Info : UTF-8 Plain Text
Duration : 1 h 20 min
Bit rate : 27 b/s
Count of elements : 454
Stream size : 16.4 KiB (0%)
Title : Full
Language : English
Default : No
Forced : No

Menu
00:00:00.000 : en:00:00:00.000
00:05:16.316 : en:00:05:16.316
00:11:00.451 : en:00:11:00.451
00:17:49.318 : en:00:17:49.318
00:24:11.450 : en:00:24:11.450
00:29:07.037 : en:00:29:07.037
00:35:14.612 : en:00:35:14.612
00:39:12.308 : en:00:39:12.308
00:46:29.286 : en:00:46:29.286
00:52:56.590 : en:00:52:56.590
01:00:37.634 : en:01:00:37.634
01:05:28.091 : en:01:05:28.091
01:09:15.902 : en:01:09:15.902
01:13:51.969 : en:01:13:51.969
01:21:32.554 : en:01:21:32.554
01:23:56.031 : en:01:23:56.031

Релиз от: Автор релиза:
Подпишись на меня, кликни по картинке > :

Добавлен 22-01-2018 1:45:26 (2 часа назад)
Размер 9.88 GB (10607665420 Bytes)  





Добавить комментарий

Ваш e-mail не будет опубликован. Обязательные поля помечены *

*
*