Неудобная планета / An Inconvenient Sequel: Truth to Power (2017) BDRip 720p | L

Скачать торрент (Doddle Loader)

Зеркало 1 (Media Get)

Информация о фильме
Наименование: Неудобная планета
Оригинальное наименование: An Inconvenient Sequel
Произведено: США
Категория: документальный
Режиссер постановщик: Бонни Коэн, Джон Шенк
В главных ролях: Эл Гор, Джон Керри, Марко Крапелс, Ангела Меркель, Дональд Трамп, Том Рилли

О фильме: Фильм рассказывает о том, насколько близко человечество подошло к энергетической революции. Бывший вице-президент США Альберт Гор поддерживает идею, согласно которой экологическую угрозу можно предотвратить благодаря человеческой изобретательности и страсти, хотя ставки высоки, как никогда. Он путешествует по всему миру, влияя на международную политику в области климата, а камера следует за ним по пятам, фиксируя моменты частные и публичные, забавные и острые.

Файл
Качество: BDRip 720p
Видео данные: MKV, 1280×720 (16:9), 23.976 fps, 7033 Кбит/с
Аудио данные: AC3, 2 ch, 640 Кбит/с
Перевод: Любительский многоголосый (GreenРай Studio)
Продолжительность: 01:38:34

Над релизом работали:
Состав дикторов: Ирина Цыганенко, Ильдор Ахмеджанов, Тимур Бермудов
Руководитель проекта и координатор: Евгений Овчаренко
Организатор и координатор: Никита Марков
Пиар менеджер студии: Игорь Обухов
Техническая поддержка: Александр Методий

Mediainfo

General
Unique ID : 178141385641401649143114985217609035831 (0x8604C86BC01BBEB6B955BF14777DF037)
Complete name : D:ВидеоAn.Inconvenient.Sequel.Truth.to.Power.2017.P.BDRip.720p.GreenРай Studio.mkv
Format : Matroska
Format version : Version 4 / Version 2
File size : 5.39 GiB
Duration : 1h 38mn
Overall bit rate : 7 829 Kbps
Encoded date : UTC 2018-01-21 12:23:08
Writing application : mkvmerge v8.3.0 (‘Over the Horizon’) 64bit
Writing library : libebml v1.3.1 + libmatroska v1.4.2
DURATION : 01:38:34.019000000
NUMBER_OF_FRAMES : 184809
NUMBER_OF_BYTES : 473111040
_STATISTICS_WRITING_APP : mkvmerge v8.3.0 (‘Over the Horizon’) 64bit
_STATISTICS_WRITING_DATE_UT : 2018-01-21 12:23:08
_STATISTICS_TAGS : BPS DURATION NUMBER_OF_FRAMES NUMBER_OF_BYTES

Video
ID : 1
Format : AVC
Format/Info : Advanced Video Codec
Format profile : [email protected]
Format settings, CABAC : Yes
Format settings, ReFrames : 4 frames
Codec ID : V_MPEG4/ISO/AVC
Duration : 1h 38mn
Bit rate : 7 033 Kbps
Width : 1 280 pixels
Height : 720 pixels
Display aspect ratio : 16:9
Frame rate mode : Constant
Frame rate : 23.976 fps
Color space : YUV
Chroma subsampling : 4:2:0
Bit depth : 8 bits
Scan type : Progressive
Bits/(Pixel*Frame) : 0.318
Stream size : 4.84 GiB (90%)
Writing library : x264 core 146 r2538 121396c
Encoding settings : cabac=1 / ref=1 / deblock=1:0:0 / analyse=0x3:0x113 / me=hex / subme=2 / psy=1 / psy_rd=1.00:0.00 / mixed_ref=0 / me_range=16 / chroma_me=1 / trellis=0 / 8x8dct=1 / cqm=0 / deadzone=21,11 / fast_pskip=1 / chroma_qp_offset=0 / threads=18 / lookahead_threads=5 / sliced_threads=0 / nr=0 / decimate=1 / interlaced=0 / bluray_compat=0 / constrained_intra=0 / bframes=3 / b_pyramid=2 / b_adapt=1 / b_bias=0 / direct=1 / weightb=1 / open_gop=0 / weightp=1 / keyint=250 / keyint_min=23 / scenecut=40 / intra_refresh=0 / rc_lookahead=10 / rc=crf / mbtree=1 / crf=13.1 / qcomp=0.60 / qpmin=0 / qpmax=69 / qpstep=4 / ip_ratio=1.40 / aq=1:1.00
Language : English
Default : Yes
Forced : No
DURATION : 01:38:34.029000000
NUMBER_OF_FRAMES : 141794
NUMBER_OF_BYTES : 5312871621
_STATISTICS_WRITING_APP : mkvmerge v8.3.0 (‘Over the Horizon’) 64bit
_STATISTICS_WRITING_DATE_UT : 2018-01-21 12:23:08
_STATISTICS_TAGS : BPS DURATION NUMBER_OF_FRAMES NUMBER_OF_BYTES

Audio
ID : 2
Format : AC-3
Format/Info : Audio Coding 3
Mode extension : CM (complete main)
Format settings, Endianness : Big
Codec ID : A_AC3
Duration : 1h 38mn
Bit rate mode : Constant
Bit rate : 640 Kbps
Channel(s) : 2 channels
Channel positions : Front: L R
Sampling rate : 48.0 KHz
Compression mode : Lossy
Stream size : 451 MiB (8%)
Default : Yes
Forced : No

ВНИМАНИЕ! Присутствует реклама!

Скриншоты

Релиз от:

Добавлен 21-01-2018 20:01:35 (4 минуты назад)
Размер 5.39 GB (5787371310 Bytes)  





Добавить комментарий

Ваш e-mail не будет опубликован. Обязательные поля помечены *

*
*