National Geographic: Дикая Антарктида / Wild Antarctica (2015) HDTV 1080i | D

Скачать торрент (Doddle Loader)

Зеркало 1 (Media Get)

Информация о фильме
Название: Дикая Антарктида
Оригинальное: Wild Antarctica
Год выхода: 2015
Жанр: Документальный, природа, животные, флора, фауна
Режиссер: Джессика Коннелл

О фильме:
Антарктида. Самый холодный, сухой, удалённый континент Земли. Изоляция и экстремальные температуры, делают Антарктиду непохожей на другие места на планете. Местные животные, прекрасно приспособлены к её суровым условиям. Но любое живое существо, на этом замёрзшем континенте, всегда находится на краю гибели. Нигде больше с такой силой не проявляется воля к выживанию, как в Антарктиде. Обитание на этой промёрзлой и жестокой земле — наивысшее достижение на планете. Потому-что жизнь здесь существует на грани возможностей.

Страна: Новая Зеландия
Студия: Natural History New Zeland Ltd for NGC
Продолжительность: 00:43:59
Перевод: Дублированный

Файл
Кодек: MPEG-TS AVC
Качество: HDTV 1080i
Видео: 1920х1080, 8866 Кбит/с, 25 кадра/с
Аудио 1: Русский, MP2, 2 канала, 192 Кбит/с
Аудио 2: Английский, MP2, 2 канала, 192 Кбит/с

MI

Общее
Идентификатор : 1 (0x1)
Полное имя : C:UsersDVideosДикая Антарктика.ts
Формат : MPEG-TS
Размер файла : 2,99 Гбайт
Продолжительность : 43 м. 59 с.
Режим общего битрейта : Переменный
Общий поток : 9735 Кбит/сек

Видео
Идентификатор : 321 (0x141)
Идентификатор меню : 1 (0x1)
Формат : AVC
Формат/Информация : Advanced Video Codec
Профиль формата : [email protected]
Настройки формата : CABAC / 4 Ref Frames
Параметр CABAC формата : Да
Параметр RefFrames формата : 4 кадра
Идентификатор кодека : 27
Продолжительность : 43 м. 59 с.
Битрейт : 8866 Кбит/сек
Ширина : 1920 пикселей
Высота : 1080 пикселей
Соотношение сторон : 16:9
Частота кадров : 25,000 кадров/сек
Стандарт вещания : Component
Цветовое пространство : YUV
Субдискретизация насыщенности : 4:2:0
Битовая глубина : 8 бит
Тип развёртки : Чересстрочная
Метод сохранения типа развёртки : Раздельные поля
Порядок развёртки : Верхнее поле первое
Бит/(Пиксели*Кадры) : 0.171
Размер потока : 2,72 Гбайт (91%)
Цветовой диапазон : Limited
Основные цвета : BT.709
Характеристики трансфера : BT.709
Коэффициенты матрицы : BT.709

Аудио #1
Идентификатор : 401 (0x191)
Идентификатор меню : 1 (0x1)
Формат : MPEG Audio
Версия формата : Version 1
Профиль формата : Layer 2
Идентификатор кодека : 3
Продолжительность : 43 м. 59 с.
Вид битрейта : Постоянный
Битрейт : 192 Кбит/сек
Каналы : 2 канала
Частота : 48,0 КГц
Частота кадров : 41,667 кадра/сек (1152 SPF)
Метод сжатия : С потерями
Размер потока : 60,4 Мбайт (2%)
Язык : Russian

Аудио #2
Идентификатор : 451 (0x1C3)
Идентификатор меню : 1 (0x1)
Формат : MPEG Audio
Версия формата : Version 1
Профиль формата : Layer 2
Идентификатор кодека : 3
Продолжительность : 43 м. 59 с.
Вид битрейта : Постоянный
Битрейт : 192 Кбит/сек
Каналы : 2 канала
Частота : 48,0 КГц
Частота кадров : 41,667 кадра/сек (1152 SPF)
Метод сжатия : С потерями
Размер потока : 60,4 Мбайт (2%)
Язык : English

Трейлер

Скриншоты

Добавлен 22-01-2018 21:29:55 (6 минут назад)
Размер 2.99 GB (3212279484 Bytes)  





Добавить комментарий

Ваш e-mail не будет опубликован. Обязательные поля помечены *

*
*