Нанятые для убийства / Hired to Kill (1990) BDRemux 1080р | D, A

Скачать торрент (Doddle Loader)

Зеркало 1 (Media Get)

Информация о фильме
Название: Нанятые для убийства
Оригинальное название: Hired to Kill
Год выхода: 1990
Жанр: боевик, триллер
Режиссер: Нико Масторакис, Питер Рейдер
В ролях: Брайан Томпсон, Оливер Рид, Джордж Кеннеди, Хосе Феррер, Мишель Моффетт, Барбара Нивен, Джордана Капра, Кендалл Конрад, Ким Лонсдэйл, Джуд Муссеттер

Описание: Убийце-профессионалу Фрэнку Райену для выполнения чрезвычайно важного и опасного задания необходимо проникнуть в некое государство Сайпра известное в мире своим кровавым тоталитарно-диктаторским режимом и зверствующей контрразведкой. Сочиняется шикарная легенда — и Райен становится молодым талантливым художником-модельером Сесилом Торнтоном который вместе со своей труппой манекенщиц приезжает в Сайпру для демонстрации новой коллекции одежды.

Страна: США
Продолжительность: 01:36:28
Перевод 1: Профессиональный (дублированный) Варус Видео
Перевод 2: Авторский (одноголосый закадровый) Вартан Дохалов
Субтитры: английские
Оригинальная аудиодорожка: английский

Файл
Качество: BDRemux 1080р
Видео: MPEG-4 AVC / 1920×1080 (16:9) / 32979 kbps / 24,000 fps / [email protected]
Аудио 1: Russian / AC3 / 48 kHz / 2.0 Ch / 192 kbps / 16 bit / Варус Видео
Аудио 2: Russian / AC3 / 48 kHz / 2.0 Ch / 192 kbps / 16 bit / Вартан Дохалов
Аудио 3: English / LPCM Audio / 2.0 / 48 kHz / 1536 kbps / 16-bit / Original

Скриншоты

MediaInfo

Общее
Уникальный идентификатор : 11536607877314694169661310525030537816 (0x8ADDEAEEEB540C93488629A3B701A58)
Полное имя : Hired.to.Kill.1990.BDRemux.1080p.mkv
Формат : Matroska
Версия формата : Version 4 / Version 2
Размер файла : 23,5 Гбайт
Продолжительность : 1 ч. 36 м.
Режим общего битрейта : Переменный
Общий поток : 34,9 Мбит/сек
Дата кодирования : UTC 2018-01-18 11:18:45
Программа кодирования : mkvmerge v20.0.0 (‘I Am The Sun’) 32-bit
Библиотека кодирования : libebml v1.3.5 + libmatroska v1.4.8
DURATION : 01:31:30.667000000
NUMBER_OF_FRAMES : 821
NUMBER_OF_BYTES : 29611
_STATISTICS_WRITING_APP : mkvmerge v20.0.0 (‘I Am The Sun’) 32-bit
_STATISTICS_WRITING_DATE_UTC : 2018-01-18 11:18:45
_STATISTICS_TAGS : BPS DURATION NUMBER_OF_FRAMES NUMBER_OF_BYTES

Видео
Идентификатор : 1
Формат : AVC
Формат/Информация : Advanced Video Codec
Профиль формата : [email protected]
Параметр CABAC формата : Да
Параметр ReFrames формата : 4 кадра
Идентификатор кодека : V_MPEG4/ISO/AVC
Продолжительность : 1 ч. 36 м.
Вид битрейта : Переменный
Максимальный битрейт : 35,0 Мбит/сек
Ширина : 1920 пикселей
Высота : 1080 пикселей
Соотношение сторон : 16:9
Режим частоты кадров : Постоянный
Частота кадров : 24,000 кадра/сек
Стандарт вещания : NTSC
Цветовое пространство : YUV
Субдискретизация насыщенности : 4:2:0
Битовая глубина : 8 бит
Тип развёртки : Прогрессивная
Язык : English
Default : Да
Forced : Нет
Основные цвета : BT.709
Характеристики трансфера : BT.709
Коэффициенты матрицы : BT.709

Аудио #1
Идентификатор : 2
Формат : AC-3
Формат/Информация : Audio Coding 3
Расширение режима : CM (complete main)
Параметр Endianness формата : Big
Идентификатор кодека : A_AC3
Продолжительность : 1 ч. 36 м.
Вид битрейта : Постоянный
Битрейт : 192 Кбит/сек
Каналы : 2 канала
Расположение каналов : Front: L R
Частота : 48,0 КГц
Битовая глубина : 16 бит
Метод сжатия : С потерями
Размер потока : 132 Мбайт (1%)
Заголовок : Варус Видео
Язык : Russian
Default : Да
Forced : Нет

Аудио #2
Идентификатор : 3
Формат : AC-3
Формат/Информация : Audio Coding 3
Расширение режима : CM (complete main)
Параметр Endianness формата : Big
Идентификатор кодека : A_AC3
Продолжительность : 1 ч. 36 м.
Вид битрейта : Постоянный
Битрейт : 192 Кбит/сек
Каналы : 2 канала
Расположение каналов : Front: L R
Частота : 48,0 КГц
Битовая глубина : 16 бит
Метод сжатия : С потерями
Размер потока : 132 Мбайт (1%)
Заголовок : Вартан Дохалов
Язык : Russian
Default : Нет
Forced : Нет

Аудио #3
Идентификатор : 4
Формат : PCM
Идентификатор кодека : A_PCM/INT/LIT
Продолжительность : 1 ч. 36 м.
Вид битрейта : Постоянный
Каналы : 2 канала
Частота : 48,0 КГц
Битовая глубина : 16 бит
Язык : English
Default : Нет
Forced : Нет

Текст
Идентификатор : 5
Формат : UTF-8
Идентификатор кодека : S_TEXT/UTF8
Идентификатор кодека/Информация : UTF-8 Plain Text
Заголовок : SDH
Язык : English
Default : Нет
Forced : Нет

Меню
00:00:00.000 : en:Chapter 1
00:07:22.541 : en:Chapter 2
00:11:37.416 : en:Chapter 3
00:22:28.416 : en:Chapter 4
00:30:41.500 : en:Chapter 5
00:39:43.500 : en:Chapter 6
00:48:25.125 : en:Chapter 7
00:57:25.208 : en:Chapter 8
01:05:20.291 : en:Chapter 9
01:09:06.333 : en:Chapter 10
01:21:08.083 : en:Chapter 11
01:33:26.083 : en:Chapter 12

Добавлен 22-01-2018 10:13:18 (44 секунды назад)
Размер 23.52 GB (25251919385 Bytes)  





Добавить комментарий

Ваш e-mail не будет опубликован. Обязательные поля помечены *

*
*