Мертвые дети / Strange Behavior / Dead kids (1981) BDRemux 1080р | P

Скачать торрент (Doddle Loader)

Зеркало 1 (Media Get)

Информация о фильме
Название: Мертвые дети
Оригинальное название: Strange Behavior / Dead kids
Год выхода: 1981
Жанр: ужасы, детектив, фантастика
Режиссер: Майкл Лофлин
В ролях: Майкл Мерфи, Луиза Флетчер, Дэн Шор, Фиона Льюис, Артур Дигнам, Дей Янг, Марк МакКлюр, Скотт Брейди, Чарльз Лэйн, Элизабет Чешир

Описание: В заштатном американском городке убиты, с особой жестокостью, несколько подростков. Опытный полицейский Джон Брэди, сам отец старшеклассника, считает, что преступления связаны с деятельностью научной лаборатории, проводящей сомнительные медицинские эксперименты…

Страна: Австралия, США, Новая Зеландия
Продолжительность: 01:41:12
Перевод: Профессиональный (многоголосый закадровый) Cinema Prestige
Субтитры: русские
Оригинальная аудиодорожка: английский

Файл
Качество: BDRemux 1080р
Видео: MPEG-4 AVC Video / 25999 kbps / 1080p / 23.976 fps / 16:9 / High Profile 4.1
Аудио 1: Russian / Dolby Digital Audio / 2.0 / 48 kHz / 192 kbps
Аудио 2: English / DTS-HD Master Audio / 1.0 / 48 kHz / 814 kbps / 16-bit (DTS Core: 1.0 / 48 kHz / 768 kbps / 16-bit)
Аудио 3: English / Dolby Digital Audio / 2.0 / 48 kHz / 192kbps Commentary With Director/Co-Writer Michael Laughlin
Аудио 4: English / Dolby Digital Audio / 2.0 / 48 kHz / 192kbps Commentary With Co-Writer/Associate Producer Bill Condon and Actors Dan Shor & Dey Young

Скриншоты

MediaInfo

General
Unique ID : 221184761157482762961383914044247012729 (0xA666A2AE8649B6E49B468145B8447579)
Complete name : Мертвые дети (1981. Strange behavior).mkv
Format : Matroska
Format version : Version 4 / Version 2
File size : 18.9 GiB
Duration : 1h 41mn
Overall bit rate : 26.7 Mbps
Encoded date : UTC 2016-05-27 15:26:12
Writing application : mkvmerge v9.0.0 (‘Power to progress’) 64bit
Writing library : libebml v1.3.3 + libmatroska v1.4.4

Video
ID : 1
Format : AVC
Format/Info : Advanced Video Codec
Format profile : [email protected]
Format settings, CABAC : Yes
Format settings, ReFrames : 4 frames
Format settings, GOP : M=3, N=24
Codec ID : V_MPEG4/ISO/AVC
Duration : 1h 41mn
Bit rate mode : Constant
Bit rate : 26.0 Mbps
Width : 1 920 pixels
Height : 1 080 pixels
Display aspect ratio : 16:9
Frame rate mode : Constant
Frame rate : 23.976 (24000/1001) fps
Standard : NTSC
Color space : YUV
Chroma subsampling : 4:2:0
Bit depth : 8 bits
Scan type : Progressive
Bits/(Pixel*Frame) : 0.523
Stream size : 17.9 GiB (95%)
Title : Video: MPEG-4 AVC Video / 25999 kbps / 1080p / 23.976 fps / 16:9 / High Profile 4.1
Default : Yes
Forced : No
Color range : Limited
Color primaries : BT.709
Transfer characteristics : BT.709
Matrix coefficients : BT.709

Audio #1
ID : 2
Format : AC-3
Format/Info : Audio Coding 3
Mode extension : CM (complete main)
Format settings, Endianness : Big
Codec ID : A_AC3
Duration : 1h 41mn
Bit rate mode : Constant
Bit rate : 192 Kbps
Channel(s) : 2 channels
Channel positions : Front: L R
Sampling rate : 48.0 KHz
Frame rate : 31.250 fps (1536 spf)
Compression mode : Lossy
Stream size : 139 MiB (1%)
Title : MVO — Cinema Prestige
Language : Russian
Default : Yes
Forced : No

Audio #2
ID : 3
Format : DTS
Format/Info : Digital Theater Systems
Format profile : MA / Core
Mode : 16
Format settings, Endianness : Big
Codec ID : A_DTS
Duration : 1h 41mn
Bit rate mode : Variable / Constant
Bit rate : 814 Kbps / 768 Kbps
Channel(s) : 1 channel
Channel positions : Front: C
Sampling rate : 48.0 KHz
Frame rate : 93.750 fps (512 spf)
Bit depth : 16 bits
Compression mode : Lossless / Lossy
Stream size : 589 MiB (3%)
Title : DTS-HD Master Audio / 1.0 / 48 kHz / 814 kbps
Language : English
Default : No
Forced : No

Audio #3
ID : 4
Format : AC-3
Format/Info : Audio Coding 3
Mode extension : CM (complete main)
Format settings, Endianness : Big
Codec ID : A_AC3
Duration : 1h 41mn
Bit rate mode : Constant
Bit rate : 192 Kbps
Channel(s) : 2 channels
Channel positions : Front: L R
Sampling rate : 48.0 KHz
Frame rate : 31.250 fps (1536 spf)
Compression mode : Lossy
Stream size : 139 MiB (1%)
Title : Commentary With Director/Co-Writer Michael Laughlin
Language : English
Default : No
Forced : No

Audio #4
ID : 5
Format : AC-3
Format/Info : Audio Coding 3
Mode extension : CM (complete main)
Format settings, Endianness : Big
Codec ID : A_AC3
Duration : 1h 41mn
Bit rate mode : Constant
Bit rate : 192 Kbps
Channel(s) : 2 channels
Channel positions : Front: L R
Sampling rate : 48.0 KHz
Frame rate : 31.250 fps (1536 spf)
Compression mode : Lossy
Stream size : 139 MiB (1%)
Title : Commentary With Co-Writer/Associate Producer Bill Condon and Actors Dan Shor & Dey Young
Language : English
Default : No
Forced : No

Text
ID : 6
Format : UTF-8
Codec ID : S_TEXT/UTF8
Codec ID/Info : UTF-8 Plain Text
Duration : 1h 37mn
Bit rate : 63 bps
Count of elements : 836
Stream size : 45.6 KiB (0%)
Language : Russian
Default : No
Forced : No

Menu
00:00:00.000 : :Chapter 01
00:04:44.534 : :Chapter 02
00:15:03.611 : :Chapter 03
00:23:12.641 : :Chapter 04
00:30:39.587 : :Chapter 05
00:41:28.986 : :Chapter 06
00:55:07.304 : :Chapter 07
01:04:43.296 : :Chapter 08
01:16:30.002 : :Chapter 09
01:27:40.088 : :Chapter 10
01:35:15.542 : :Chapter 11
01:37:47.361 : :Chapter 12
01:41:12.441 : :Chapter 13

Добавлен 22-01-2018 13:09:25 (32 секунды назад)
Размер 18.89 GB (20279777585 Bytes)  





Добавить комментарий

Ваш e-mail не будет опубликован. Обязательные поля помечены *

*
*