Легенда о Джабберуоке / Jabberwock (2011) BDRip 1080p | P, P2

Скачать торрент (Doddle Loader)

Зеркало 1 (Media Get)

Информация о фильме
Название: Легенда о Джабберуоке
Оригинальное название: Jabberwock
Год выхода: 2011
Жанр: Фэнтези, фантастика
Режиссер: Стивен Р. Монро
В ролях: Тамо Пеникетт, Кейси Барнфилд, Раффаэлло Дегруттола, Майкл Уорт, Хью Росс, Йен Вирго, Ричард Ридделл, Стивен Вэддингтон, Виолета Марковска, Станимир Стаматов

О фильме:
По произведению Льюис Кэррола. Черноглазое чудовище с телом дракона и головой насекомого похищает красавицу Анабель и удерживает ее в своем логове. С ним вступает в жестокую схватку герой Тамо Пеникетта, владеющий непобедимым мечом, чтобы спасти любимую девушку.

Страна: США
Студия: American World Pictures
Продолжительность: 01:27:21
Перевод 1: Профессиональный (многоголосый закадровый) Вольга
Перевод 2: Профессиональный (двухголосый закадровый) SYFY


MediaInfo:

General
Unique ID : 208436036424780134771160692164584915168 (0x9CCF5205FEE6D207A030A12F9231C0E0)
Complete name : H:Jabberwock — Легенда о Джабберуоке (2011) BDRip 1080p.mkv
Format : Matroska
Format version : Version 2
File size : 7.17 GiB
Duration : 1h 27mn
Overall bit rate : 11.8 Mbps
Encoded date : UTC 2012-03-26 10:29:34
Writing application : mkvmerge v5.2.0 (‘I can’t explain’) built on Dec 18 2011 18:12:03
Writing library : libebml v1.2.3 + libmatroska v1.3.0

Video
ID : 1
Format : AVC
Format/Info : Advanced Video Codec
Format profile : [email protected]
Format settings, CABAC : Yes
Format settings, ReFrames : 4 frames
Codec ID : V_MPEG4/ISO/AVC
Duration : 1h 27mn
Bit rate : 9 602 Kbps
Width : 1 920 pixels
Height : 1 080 pixels
Display aspect ratio : 16:9
Frame rate mode : Constant
Frame rate : 23.976 fps
Color space : YUV
Chroma subsampling : 4:2:0
Bit depth : 8 bits
Scan type : Progressive
Bits/(Pixel*Frame) : 0.193
Stream size : 5.72 GiB (80%)
Writing library : x264 core 122 r2184 5c85e0a
Encoding settings : cabac=1 / ref=4 / deblock=1:0:0 / analyse=0x3:0x113 / me=umh / subme=7 / psy=1 / psy_rd=1.00:0.00 / mixed_ref=1 / me_range=16 / chroma_me=1 / trellis=1 / 8x8dct=1 / cqm=0 / deadzone=21,11 / fast_pskip=0 / chroma_qp_offset=-2 / threads=12 / sliced_threads=0 / nr=0 / decimate=1 / interlaced=0 / bluray_compat=0 / constrained_intra=0 / bframes=3 / b_pyramid=2 / b_adapt=1 / b_bias=0 / direct=1 / weightb=1 / open_gop=0 / weightp=2 / keyint=250 / keyint_min=23 / scenecut=40 / intra_refresh=0 / rc_lookahead=40 / rc=2pass / mbtree=1 / bitrate=9602 / ratetol=1.0 / qcomp=0.60 / qpmin=0 / qpmax=69 / qpstep=4 / cplxblur=20.0 / qblur=0.5 / ip_ratio=1.40 / aq=1:1.00
Language : English
Default : Yes
Forced : No

Audio #1
ID : 2
Format : AC-3
Format/Info : Audio Coding 3
Mode extension : CM (complete main)
Format settings, Endianness : Big
Codec ID : A_AC3
Duration : 1h 27mn
Bit rate mode : Constant
Bit rate : 448 Kbps
Channel(s) : 6 channels
Channel positions : Front: L C R, Side: L R, LFE
Sampling rate : 48.0 KHz
Compression mode : Lossy
Stream size : 280 MiB (4%)
Title : MVO (R5)
Language : Russian
Default : Yes
Forced : No

Audio #2
ID : 3
Format : AC-3
Format/Info : Audio Coding 3
Mode extension : CM (complete main)
Format settings, Endianness : Big
Codec ID : A_AC3
Duration : 1h 27mn
Bit rate mode : Constant
Bit rate : 192 Kbps
Channel(s) : 2 channels
Channel positions : Front: L R
Sampling rate : 48.0 KHz
Compression mode : Lossy
Stream size : 120 MiB (2%)
Title : SyFy
Language : Russian
Default : No
Forced : No

Audio #3
ID : 4
Format : DTS
Format/Info : Digital Theater Systems
Mode : 16
Format settings, Endianness : Big
Codec ID : A_DTS
Duration : 1h 27mn
Bit rate mode : Constant
Bit rate : 1 509 Kbps
Channel(s) : 6 channels
Channel positions : Front: L C R, Side: L R, LFE
Sampling rate : 48.0 KHz
Bit depth : 16 bits
Compression mode : Lossy
Delay relative to video : 22ms
Stream size : 943 MiB (13%)
Language : English
Default : No
Forced : No

Menu
00:00:00.000 : en:00:00:00.000
00:06:12.372 : en:00:06:12.372
00:14:45.051 : en:00:14:45.051
00:22:23.217 : en:00:22:23.217
00:30:12.185 : en:00:30:12.185
00:36:08.583 : en:00:36:08.583
00:43:57.635 : en:00:43:57.635
00:51:10.901 : en:00:51:10.901
00:57:54.846 : en:00:57:54.846
01:06:13.970 : en:01:06:13.970
01:15:26.522 : en:01:15:26.522
01:19:42.778 : en:01:19:42.778


Файл
Кодек: MPEG-4 AVC
Качество: BDRip 1080p
Видео: MPEG4/AVC, 1920×1080, 9602 Kbps, 23.976 fps
Звук:
AC-3, 448 Kbps, 6 channels, 48 KHz, Rus (Вольга)
AC-3, 192 Kbps, 2 channels, 48 KHz, Rus (SYFY)
DTS, 1509 Kbps, 6 channels, 48 KHz, Eng

Семпл

Скриншоты

Добавлен 22-01-2018 19:53:51 (5 секунд назад)
Размер 7.17 GB (7699089951 Bytes)  





Добавить комментарий

Ваш e-mail не будет опубликован. Обязательные поля помечены *

*
*