Kingsman: Золотое кольцо / Kingsman: The Golden Circle (2017) BDRip-AVC | iTunes

Скачать торрент (Doddle Loader)

Зеркало 1 (Media Get)

Информация о фильме
Название: Kingsman: Золотое кольцо
Оригинальное название: Kingsman: The Golden Circle
Год выхода: 2017
Жанр: Боевик, комедия, приключения
Режиссер: Мэттью Вон / Matthew Vaughn
В ролях: Колин Фёрт, Тэрон Эджертон, Эдвард Холкрофт, Гордон Александр, Марк Стронг, Ханна Альстрём, Кэлвин Демба, Томас Тургус, Тоби Бакаре, Джулианна Мур

О фильме:
Когда штаб-квартиры секретной службы «Kingsman» уничтожены, и весь мир оказался в заложниках у неизвестных, британские суперагенты обнаруживают, что в один день вместе с их организацией была еще создана американская разведка — «Statesman». Теперь эти две элитные спецслужбы должны объединиться и бросить вызов общему безжалостному врагу, чтобы спасти мир, то есть заняться тем, что для Эггси становится обычным делом…

Релиз группы:

Страна: США
Продолжительность: 02:21:02
Перевод: Профессиональный (дублированный) iTunes

Файл
Кодек: AVC
Качество: BDRip-AVC |KINGSMAN_TGC_BLUEBIRD |
Видео: 1152×482 (2.40:1), 23,976 fps, 3268 Кbps, 0.245 bit/pixe
Звук:
48 kHz, AC3 Dolby Digital, 3/2 (L,C,R,l,r) + LFE ch, ~384.00 kbps avg DUB
48 kHz, AC3 Dolby Digital, 3/2 (L,C,R,l,r) + LFE ch, ~448.00 kbps avg ENG
Субтитры: русские форсированные, русские полные, английские srt отключаемые

Семпл

Знаете ли вы, что…

Первый сиквел в режиссёрской карьере Мэттью Вона.
В актёрский состав фильма входят пятеро «оскароносцев» — это Джулианна Мур, Холли Берри, Джефф Бриджес, Колин Фёрт и Элтон Джон.
Одно время Мэттью Вон заявлял в шутку, что снова затащит Колина Фёрта во франшизу «Кингсман», пусть даже на роль зомби Гарри Харта или его злобного двойника.
Перед выходом фильма «Kingsman: Секретная служба» Марк Миллар и Мэттью Вон заявили, что продолжение будет возможно, если первый фильм хорошо покажет себя в прокате. Вон выразил интерес вернуться в качестве режиссёра картины. Стронг был также заинтересован в возвращении к роли Мерлина
14 апреля 2016 года в своём Twitter-аккаунте Татум опубликовал тизер-постер, аналогичный тому, который намекал на возвращение Колина Фёрта, с очками-авиаторами и подписью: «Моя мама всегда говорила, что вы, Британцы, научили нас, Южан, хорошим манерам».
Режиссёр Мэттью Вон признался, что поначалу сомневался в необходимости продолжения: «Я не знал, хочу ли снимать это кино. Я беспокоился о злодее, а именно от злодея во многом зависит успех шпионских фильмов. Но, проснувшись однажды, я понял, какая история и какая злодейка мне нужны».
Персонаж Джеффа Бриджеса не носит ни бороды, ни усов. Актёр впервые появляется на экране чисто выбритым с момента выхода на экраны в 2009 году драмы Джорджа ЛаВу «Год собаки».
Брюс Гринвуд в этом фильме третий раз играет президента Соединённых штатов. Ранее он сыграл президента в фильмах: «Сокровище нации: Книга Тайн» (2007), Тринадцать дней (2000).

MediaInfo

General
Unique ID : 176481827605224666832079941228859272526 (0x84C529E479B791AF91D43B28DE50AD4E)
Complete name : F:Мои рипыKingsman Золотое кольцоKingsman The Golden Circle [email protected]
Format : Matroska
Format version : Version 4 / Version 2
File size : 4.12 GiB
Duration : 2h 21mn
Overall bit rate : 4 183 Kbps
Movie name : Kingsman The Golden Circle [email protected]
Encoded date : UTC 2018-01-15 20:32:14
Writing application : mkvmerge v17.0.0 (‘Be Ur Friend’) 64-bit
Writing library : libebml v1.3.5 + libmatroska v1.4.8
DURATION : 02:13:01.724000000
NUMBER_OF_FRAMES : 2142
NUMBER_OF_BYTES : 60125
_STATISTICS_WRITING_APP : mkvmerge v17.0.0 (‘Be Ur Friend’) 64-bit
_STATISTICS_WRITING_DATE_UTC : 2018-01-15 20:32:14
_STATISTICS_TAGS : BPS DURATION NUMBER_OF_FRAMES NUMBER_OF_BYTES
Attachment : Yes

Video
ID : 1
Format : AVC
Format/Info : Advanced Video Codec
Format profile : [email protected]
Format settings, CABAC : Yes
Format settings, ReFrames : 11 frames
Codec ID : V_MPEG4/ISO/AVC
Duration : 2h 21mn
Bit rate : 3 268 Kbps
Width : 1 152 pixels
Height : 482 pixels
Display aspect ratio : 2.40:1
Frame rate mode : Constant
Frame rate : 23.976 fps
Color space : YUV
Chroma subsampling : 4:2:0
Bit depth : 8 bits
Scan type : Progressive
Bits/(Pixel*Frame) : 0.245
Stream size : 3.22 GiB (78%)
Title : Kingsman The Golden Circle [email protected]
Writing library : x264 core 152 r2851kMod ba24899
Encoding settings : cabac=1 / ref=11 / deblock=1:-3:-3 / analyse=0x3:0x113 / me=umh / subme=11 / psy=1 / fade_compensate=0.00 / psy_rd=1.00:0.05 / mixed_ref=1 / me_range=48 / chroma_me=1 / trellis=2 / 8x8dct=1 / cqm=0 / deadzone=21,11 / fast_pskip=0 / chroma_qp_offset=-3 / threads=6 / lookahead_threads=6 / sliced_threads=0 / nr=0 / decimate=1 / interlaced=0 / bluray_compat=0 / constrained_intra=0 / bframes=16 / b_pyramid=2 / b_adapt=2 / b_bias=0 / direct=3 / weightb=1 / open_gop=0 / weightp=2 / keyint=240 / keyint_min=23 / scenecut=40 / intra_refresh=0 / rc_lookahead=60 / rc=crf / mbtree=0 / crf=16.3000 / qcomp=0.60 / qpmin=0 / qpmax=69 / qpstep=4 / vbv_maxrate=50000 / vbv_bufsize=62500 / crf_max=0.0 / nal_hrd=none / filler=0 / ip_ratio=1.40 / pb_ratio=1.30 / aq=3:0.80
Language : English
Default : Yes
Forced : No
Color primaries : BT.709
Transfer characteristics : BT.709
Matrix coefficients : BT.709
DURATION : 02:21:02.246000000
NUMBER_OF_FRAMES : 202891
NUMBER_OF_BYTES : 3541673840
_STATISTICS_WRITING_APP : mkvmerge v17.0.0 (‘Be Ur Friend’) 64-bit
_STATISTICS_WRITING_DATE_UTC : 2018-01-15 20:32:14
_STATISTICS_TAGS : BPS DURATION NUMBER_OF_FRAMES NUMBER_OF_BYTES

Audio #1
ID : 2
Format : AC-3
Format/Info : Audio Coding 3
Mode extension : CM (complete main)
Format settings, Endianness : Big
Codec ID : A_AC3
Duration : 2h 21mn
Bit rate mode : Constant
Bit rate : 384 Kbps
Channel(s) : 6 channels
Channel positions : Front: L C R, Side: L R, LFE
Sampling rate : 48.0 KHz
Bit depth : 16 bits
Compression mode : Lossy
Stream size : 387 MiB (9%)
Title : Dub
Language : Russian
Default : Yes
Forced : No

Audio #2
ID : 3
Format : AC-3
Format/Info : Audio Coding 3
Mode extension : CM (complete main)
Format settings, Endianness : Big
Codec ID : A_AC3
Duration : 2h 21mn
Bit rate mode : Constant
Bit rate : 448 Kbps
Channel(s) : 6 channels
Channel positions : Front: L C R, Side: L R, LFE
Sampling rate : 48.0 KHz
Bit depth : 16 bits
Compression mode : Lossy
Stream size : 452 MiB (11%)
Title : Eng
Language : English
Default : No
Forced : No

Text #1
ID : 4
Format : UTF-8
Codec ID : S_TEXT/UTF8
Codec ID/Info : UTF-8 Plain Text
Title : Rus forsed
Language : Russian
Default : Yes
Forced : No

Text #2
ID : 5
Format : UTF-8
Codec ID : S_TEXT/UTF8
Codec ID/Info : UTF-8 Plain Text
Title : Rus
Language : Russian
Default : No
Forced : No

Text #3
ID : 6
Format : UTF-8
Codec ID : S_TEXT/UTF8
Codec ID/Info : UTF-8 Plain Text
Title : Eng ful
Language : English
Default : No
Forced : No

Text #4
ID : 7
Format : UTF-8
Codec ID : S_TEXT/UTF8
Codec ID/Info : UTF-8 Plain Text
Title : Eng SDH
Language : English
Default : No
Forced : No

Menu
00:00:00.000 : en:00:00:00.000
00:04:51.958 : en:00:04:51.958
00:09:39.453 : en:00:09:39.453
00:13:36.607 : en:00:13:36.607
00:18:54.299 : en:00:18:54.299
00:24:57.287 : en:00:24:57.287
00:28:43.346 : en:00:28:43.346
00:32:52.303 : en:00:32:52.303
00:39:18.731 : en:00:39:18.731
00:43:21.849 : en:00:43:21.849
00:48:26.570 : en:00:48:26.570
00:53:54.105 : en:00:53:54.105
00:58:31.257 : en:00:58:31.257
01:05:04.901 : en:01:05:04.901
01:09:52.521 : en:01:09:52.521
01:13:34.743 : en:01:13:34.743
01:19:41.860 : en:01:19:41.860
01:23:45.103 : en:01:23:45.103
01:28:55.288 : en:01:28:55.288
01:33:25.224 : en:01:33:25.224
01:40:14.758 : en:01:40:14.758
01:45:03.255 : en:01:45:03.255
01:49:38.488 : en:01:49:38.488
01:55:15.992 : en:01:55:15.992
02:01:40.835 : en:02:01:40.835
02:05:44.036 : en:02:05:44.036
02:12:36.406 : en:02:12:36.406
02:15:15.273 : en:02:15:15.273

x264 log

x264 (info): frame I:2011 Avg QP:14.78 size:104517 PSNR Mean Y:48.20 U:50.69 V:50.74 Avg:48.88 Global:48.16
x264 (info): frame P:51154 Avg QP:16.64 size: 35263 PSNR Mean Y:46.21 U:48.85 V:48.90 Avg:46.91 Global:46.12
x264 (info): frame B:149726 Avg QP:18.83 size: 10203 PSNR Mean Y:45.88 U:48.53 V:48.64 Avg:46.59 Global:45.62
x264 (info): consecutive B-frames: 4.6% 6.5% 9.6% 22.6% 17.7% 26.4% 6.1% 2.4% 1.3% 0.7% 0.5% 0.3% 0.2% 0.1% 0.1% 0.3% 0.4%
x264 (total): encoded 202891 frames, 1.69 fps, 3348.21 kb/s, duration 33:20:38.23

Скриншот c названием фильма

Скриншоты

Релиз от: [email protected]

Добавлен 16-01-2018 10:48:24 (7 секунд назад)
Размер 4.12 GB (4424871291 Bytes)  





Добавить комментарий

Ваш e-mail не будет опубликован. Обязательные поля помечены *

*
*