Хороший год / A Good Year (2006) HDRip-AVC от Kaztorrents | D | Open Matte

Скачать торрент (Doddle Loader)

Зеркало 1 (Media Get)

✦ Хороший год / A Good Year ✦

Информация о фильме:
❖ Год выпуска: 2006
❖ Страна: США, Великобритания / Fox 2000 Pictures, Scott Free Productionsd
❖ Жанр: драма, мелодрама, комедия
❖ Перевод: Профессиональный (полное дублирование) (CEE)
❖ Продолжительность: 01:57:31

❖ Режиссер: Ридли Скотт
❖ В ролях: Рассел Кроу, Марион Котийяр, Альберт Финни, Фредди Хаймор, Том Холландер, Рейф Сполл, Арчи Панджаби, Ричард Койл, Эбби Корниш, Бен Райтон

❖ Релиз от:
❖ Автор рипа: ProT1gR

Описание фильма:
Воротила Лондонской фондовой биржи, безумно умный, удачливый менеджер и по совместительству большой зануда наследует винодельню в Провансе. По прибытии во Францию он обнаруживает, что, кроме него, есть еще люди, претендующие на его законную собственность. Цепочка невероятных событий и открытий заставят его по-новому взглянуть на истинные ценности этого мира…

Технические данные файла:
❖ Качество: HDRip-AVC (Исх. Hybrid 1080p (Open Matte) -BLUEBIRD)
❖ Формат: MKV
❖ Видео: 1024×576 (16:9), 24 fps, MPEG-4 AVC ~ 2 249 kb/s (0.159 bit/pixel)
❖ Аудио: AC3, 48.0 KHz, 6 ch, 384 kbps

MI

General
Unique ID : 178806985658494874831669795720565435329 (0x8684F9090FFA399F9A81A264663D2BC1)
Complete name : A Good Year.(2006).HDRip-AVC.(Kaztorrents).Open Matte.mkv
Format : Matroska
Format version : Version 2
File size : 2.16 GiB
Duration : 1 h 57 min
Overall bit rate : 2 634 kb/s
Encoded date : UTC 2018-01-16 15:08:26
Writing application : mkvmerge v7.8.0 (‘River Man’) 32bit built on Apr 3 2015 12:11:22
Writing library : libebml v1.3.1 + libmatroska v1.4.2

Video
ID : 1
Format : AVC
Format/Info : Advanced Video Codec
Format profile : [email protected]
Format settings, CABAC : Yes
Format settings, ReFrames : 12 frames
Codec ID : V_MPEG4/ISO/AVC
Duration : 1 h 57 min
Bit rate : 2 249 kb/s
Width : 1 024 pixels
Height : 576 pixels
Display aspect ratio : 16:9
Frame rate mode : Constant
Frame rate : 23.976 (24000/1001) FPS
Color space : YUV
Chroma subsampling : 4:2:0
Bit depth : 8 bits
Scan type : Progressive
Bits/(Pixel*Frame) : 0.159
Stream size : 1.80 GiB (83%)
Writing library : x264 core 146 r2538 121396c
Encoding settings : cabac=1 / ref=12 / deblock=1:-3:-3 / analyse=0x3:0x113 / me=umh / subme=11 / psy=1 / psy_rd=1.00:0.00 / mixed_ref=1 / me_range=48 / chroma_me=1 / trellis=2 / 8x8dct=1 / cqm=0 / deadzone=21,11 / fast_pskip=0 / chroma_qp_offset=-2 / threads=6 / lookahead_threads=1 / sliced_threads=0 / nr=0 / decimate=0 / interlaced=0 / bluray_compat=0 / constrained_intra=0 / bframes=12 / b_pyramid=2 / b_adapt=2 / b_bias=0 / direct=3 / weightb=1 / open_gop=0 / weightp=2 / keyint=240 / keyint_min=23 / scenecut=40 / intra_refresh=0 / rc_lookahead=40 / rc=2pass / mbtree=0 / bitrate=2249 / ratetol=1.0 / qcomp=0.60 / qpmin=0 / qpmax=69 / qpstep=4 / cplxblur=20.0 / qblur=0.5 / vbv_maxrate=50000 / vbv_bufsize=62500 / nal_hrd=none / filler=0 / ip_ratio=1.40 / pb_ratio=1.30 / aq=1:1.10
Default : Yes
Forced : No

Audio
ID : 2
Format : AC-3
Format/Info : Audio Coding 3
Mode extension : CM (complete main)
Format settings, Endianness : Big
Codec ID : A_AC3
Duration : 1 h 57 min
Bit rate mode : Constant
Bit rate : 384 kb/s
Channel(s) : 6 channels
Channel positions : Front: L C R, Side: L R, LFE
Sampling rate : 48.0 kHz
Frame rate : 31.250 FPS (1536 spf)
Bit depth : 16 bits
Compression mode : Lossy
Stream size : 323 MiB (15%)
Default : Yes
Forced : No

Скриншоты


Добавлен 22-01-2018 18:05:52 (3 секунды назад)
Размер 2.16 GB (2322105393 Bytes)  





Добавить комментарий

Ваш e-mail не будет опубликован. Обязательные поля помечены *

*
*