Фанат / The Fan (1996) BDRip 720p от k.e.n | P, A

Скачать торрент (Doddle Loader)

Зеркало 1 (Media Get)

Информация о фильме
Название: Фанат
Оригинальное название: The Fan
Год выхода: 1996
Жанр: Триллер, драма
Режиссер: Тони Скотт
В ролях: Роберт Де Ниро, Уэсли Снайпс, Бенисио Дель Торо, Эллен Баркин, Джон Легуизамо, Патти Д`Арбанвилль, Крис Малки

О фильме:
Гил Ренар был сыном бейсболиста, сам с детства играл в бейсбол и всю жизнь болел за команду «Гигантов». Его увольняют с фирмы, изготавливающей великолепные ножи, которую основал еще его отец, бывшая жена запрещает ему встречаться с сыном, а виной всему – одержимый фанатизм болельщика, затронувший уже и психику этого и без того очень темпераментного человека. В команду «Гигантов» переходит Бобби Рэйберн, кумир Ренара, но играет плохо, так как другой игрок не хочет отдать ему свой номер 11, приносящий, как считают оба игрока, удачу каждому из них. Тогда Гил идет на убийство, лишь бы Бобби мог играть под своим «счастливым» номером. Случай помогает ему втереться в доверие кумира, но их дружба не может быть долговечной и тогда фанат Гил решается на похищение сына Бобби. Невинное увлечение переходит в кровавую цепь убийств, из которых выйти живым невозможно…

Страна: США
Студия: Mandalay Entertainment, Scott Free Productions, TriStar Pictures
Перевод: Профессиональный (многоголосый, закадровый), авторский (одноголосый, закадровый)

Файл
Кодек: Н.264
Качество: BDRip 720p
Видео: AVC, 1280×544 (2.35:1), 23.976 fps, 6 531 Kbps (0.391 bit/pixel)
Звук:
Аудио #1: AC-3, 48.0 KHz, 6 ch, 384 Kbps, CBR (Russian) — многоголосый (iTunes Russia, он же West Video)
Аудио #2: AC-3, 48.0 KHz, 6 ch, 384 Kbps, CBR (Russian) — многоголосый
Аудио #3: AC-3, 48.0 KHz, 6 ch, 384 Kbps, CBR (Russian) — авторский Ю.Живов
Аудио #4: AC-3, 48.0 KHz, 6 ch, 448 Kbps, CBR (Russian) — авторский М.Яроцкий
Аудио #5: AC-3, 48.0 KHz, 6 ch, 448 Kbps, CBR (Russian) — авторский А.Гаврилов
Аудио #6: AC-3, 48.0 KHz, 6 ch, 448 Kbps, CBR (English) — оригинал
Субтитры: Russian, English

Скриншоты

MediaInfo:

Формат : Matroska
Версия формата : Version 2
Размер файла : 7,35 Гбайт
Продолжительность : 1 ч. 56 м.
Общий поток : 9028 Кбит/сек
Дата кодирования : UTC 2018-01-21 21:38:23
Программа кодирования : mkvmerge v5.3.0 (‘I could have danced’) built on Feb 9 2012 10:38:07
Библиотека кодирования : libebml v1.2.3 + libmatroska v1.3.0
Attachments : poster_2.jpg

Видео
Идентификатор : 1
Формат : AVC
Формат/Информация : Advanced Video Codec
Профиль формата : [email protected]
Параметр CABAC формата : Да
Параметр ReFrames формата : 5 кадров
Идентификатор кодека : V_MPEG4/ISO/AVC
Продолжительность : 1 ч. 56 м.
Битрейт : 6531 Кбит/сек
Ширина : 1280 пикселей
Высота : 544 пикселя
Соотношение сторон : 2,35:1
Режим частоты кадров : Постоянный
Частота кадров : 23,976 (24000/1001) кадра/сек
Цветовое пространство : YUV
Субдискретизация насыщенности : 4:2:0
Битовая глубина : 8 бит
Тип развёртки : Прогрессивная
Бит/(Пиксели*Кадры) : 0.391
Размер потока : 5,17 Гбайт (70%)
Библиотека кодирования : x264 core 152 r2851 ba24899
Настройки программы : cabac=1 / ref=5 / deblock=1:-2:-2 / analyse=0x3:0x133 / me=umh / subme=9 / psy=1 / psy_rd=1.00:0.00 / mixed_ref=1 / me_range=16 / chroma_me=1 / trellis=2 / 8x8dct=1 / cqm=0 / deadzone=21,11 / fast_pskip=0 / chroma_qp_offset=-2 / threads=6 / lookahead_threads=1 / sliced_threads=0 / nr=0 / decimate=1 / interlaced=0 / bluray_compat=0 / constrained_intra=0 / bframes=3 / b_pyramid=2 / b_adapt=2 / b_bias=0 / direct=3 / weightb=1 / open_gop=0 / weightp=2 / keyint=240 / keyint_min=23 / scenecut=40 / intra_refresh=0 / rc_lookahead=50 / rc=2pass / mbtree=1 / bitrate=6531 / ratetol=1.0 / qcomp=0.60 / qpmin=0 / qpmax=69 / qpstep=4 / cplxblur=20.0 / qblur=0.5 / vbv_maxrate=62500 / vbv_bufsize=78125 / nal_hrd=none / filler=0 / ip_ratio=1.40 / aq=1:0.70
Default : Да
Forced : Нет

Аудио #1
Идентификатор : 2
Формат : AC-3
Формат/Информация : Audio Coding 3
Расширение режима : CM (complete main)
Параметр Endianness формата : Big
Идентификатор кодека : A_AC3
Продолжительность : 1 ч. 56 м.
Вид битрейта : Постоянный
Битрейт : 384 Кбит/сек
Каналы : 6 каналов
Расположение каналов : Front: L C R, Side: L R, LFE
Частота : 48,0 КГц
Частота кадров : 31,250 кадров/сек (1536 spf)
Битовая глубина : 16 бит
Метод сжатия : С потерями
Размер потока : 320 Мбайт (4%)
Заголовок : Многоголосый (iTunes Russia) West Video
Язык : Russian
Default : Да
Forced : Нет

Аудио #2
Идентификатор : 3
Формат : AC-3
Формат/Информация : Audio Coding 3
Расширение режима : CM (complete main)
Параметр Endianness формата : Big
Идентификатор кодека : A_AC3
Продолжительность : 1 ч. 56 м.
Вид битрейта : Постоянный
Битрейт : 384 Кбит/сек
Каналы : 6 каналов
Расположение каналов : Front: L C R, Side: L R, LFE
Частота : 48,0 КГц
Частота кадров : 31,250 кадров/сек (1536 spf)
Битовая глубина : 16 бит
Метод сжатия : С потерями
Размер потока : 320 Мбайт (4%)
Заголовок : Многоголосый
Язык : Russian
Default : Нет
Forced : Нет

Аудио #3
Идентификатор : 4
Формат : AC-3
Формат/Информация : Audio Coding 3
Расширение режима : CM (complete main)
Параметр Endianness формата : Big
Идентификатор кодека : A_AC3
Продолжительность : 1 ч. 56 м.
Вид битрейта : Постоянный
Битрейт : 384 Кбит/сек
Каналы : 6 каналов
Расположение каналов : Front: L C R, Side: L R, LFE
Частота : 48,0 КГц
Частота кадров : 31,250 кадров/сек (1536 spf)
Битовая глубина : 16 бит
Метод сжатия : С потерями
Размер потока : 320 Мбайт (4%)
Заголовок : Авторский Ю.Живов
Язык : Russian
Default : Нет
Forced : Нет

Аудио #4
Идентификатор : 5
Формат : AC-3
Формат/Информация : Audio Coding 3
Расширение режима : CM (complete main)
Параметр Endianness формата : Big
Идентификатор кодека : A_AC3
Продолжительность : 1 ч. 56 м.
Вид битрейта : Постоянный
Битрейт : 448 Кбит/сек
Каналы : 6 каналов
Расположение каналов : Front: L C R, Side: L R, LFE
Частота : 48,0 КГц
Частота кадров : 31,250 кадров/сек (1536 spf)
Битовая глубина : 16 бит
Метод сжатия : С потерями
Размер потока : 374 Мбайт (5%)
Заголовок : Авторский М.Яроцкий
Язык : Russian
Default : Нет
Forced : Нет

Аудио #5
Идентификатор : 6
Формат : AC-3
Формат/Информация : Audio Coding 3
Расширение режима : CM (complete main)
Параметр Endianness формата : Big
Идентификатор кодека : A_AC3
Продолжительность : 1 ч. 56 м.
Вид битрейта : Постоянный
Битрейт : 448 Кбит/сек
Каналы : 6 каналов
Расположение каналов : Front: L C R, Side: L R, LFE
Частота : 48,0 КГц
Частота кадров : 31,250 кадров/сек (1536 spf)
Битовая глубина : 16 бит
Метод сжатия : С потерями
Размер потока : 374 Мбайт (5%)
Заголовок : Авторский А.Гаврилов
Язык : Russian
Default : Нет
Forced : Нет

Аудио #6
Идентификатор : 7
Формат : AC-3
Формат/Информация : Audio Coding 3
Расширение режима : CM (complete main)
Параметр Endianness формата : Big
Идентификатор кодека : A_AC3
Продолжительность : 1 ч. 56 м.
Вид битрейта : Постоянный
Битрейт : 448 Кбит/сек
Каналы : 6 каналов
Расположение каналов : Front: L C R, Side: L R, LFE
Частота : 48,0 КГц
Частота кадров : 31,250 кадров/сек (1536 spf)
Битовая глубина : 16 бит
Метод сжатия : С потерями
Размер потока : 374 Мбайт (5%)
Заголовок : оригинал
Язык : English
Default : Нет
Forced : Нет

Текст #1
Идентификатор : 8
Формат : UTF-8
Идентификатор кодека : S_TEXT/UTF8
Идентификатор кодека/Информация : UTF-8 Plain Text
Язык : Russian
Default : Нет
Forced : Нет

Текст #2
Идентификатор : 9
Формат : UTF-8
Идентификатор кодека : S_TEXT/UTF8
Идентификатор кодека/Информация : UTF-8 Plain Text
Язык : English
Default : Нет
Forced : Нет

Меню
00:00:00.000 : en:00:00:00.000
00:08:08.446 : en:00:08:08.446
00:13:52.123 : en:00:13:52.123
00:21:00.759 : en:00:21:00.759
00:24:10.616 : en:00:24:10.616
00:30:18.900 : en:00:30:18.900
00:36:38.613 : en:00:36:38.613
00:41:43.376 : en:00:41:43.376
00:46:51.559 : en:00:46:51.559
00:51:25.457 : en:00:51:25.457
00:58:32.634 : en:00:58:32.634
01:06:17.015 : en:01:06:17.015
01:08:01.411 : en:01:08:01.411
01:11:45.259 : en:01:11:45.259
01:19:20.214 : en:01:19:20.214
01:24:04.373 : en:01:24:04.373
01:28:06.531 : en:01:28:06.531
01:35:51.454 : en:01:35:51.454
01:42:43.324 : en:01:42:43.324
01:51:26.680 : en:01:51:26.680

О релизе:

Видеоряд от CREEPSHOW (к сожалению исходников Blu Ray или BDRemux, в сети не нашел.)

Перевод М.Яроцкого доступен благодаря: napaHouk, СерП, DarveSh, Saviow, 7654, Юрий Деточкин, Литти, sa1992, zav25, dikii, Dezarmy, etamax, mestereo2110. Работа со звуком Переводман.

Остальные звуковые дорожки также найдены на просторах сети и не очень хорошего качества.

Добавлен 22-01-2018 6:50:58 (13 часа назад)
Размер 7.35 GB (7895062755 Bytes)  





Добавить комментарий

Ваш e-mail не будет опубликован. Обязательные поля помечены *

*
*