Дыхание / Breathing (2017) HDRip 720p | L2

Скачать торрент (Doddle Loader)

Зеркало 1 (Media Get)

Информация о фильме
Название: Дыхание
Оригинальное название: Breathing
Год выхода: 2017
Жанр: Драма, криминал, трилер
Режиссер: Фань Хао Лунь
В ролях: Цзин Кэ, Фань Хао Лунь, Шан бэй, Шань Гао

О фильме:
Полиция расследует дело о банде, занимающейся торговлей людьми. Ван Нань, мать, чьего ребенка похитили, отправляется в логово преступной группировки, чтобы найти свою дочь.

Страна: Китай
Продолжительность: 01:40:51
Перевод: Любительский двухголосый (RealFake)

Файл
Кодек: h.264
Качество: HD 720p
Видео: MPEG-4 AVC, 4079 Кбит/с, 1280×720
Звук: Русский (MP3, 2 ch, 192 Кбит/с, 48 КГц), китайский (AAC, 2 ch, 98.7 Кбит/с, 44,1 КГц)
Субтитры: Неотключаемые англиские

Скриншоты

MediaInfo

Общее
Уникальный идентификатор : 196356414173536193973173190455894588301 (0x93B8DEAA181DAC9FAB4E947ABFC9BB8D)
Полное имя : D:ОзвафильмыBreathing.2017.720p.mkv
Формат : Matroska
Версия формата : Version 4 / Version 2
Размер файла : 3,08 Гбайт
Продолжительность : 1 ч. 40 м.
Общий поток : 4374 Кбит/сек
Дата кодирования : UTC 2018-01-20 18:40:33
Программа кодирования : mkvmerge v18.0.0 (‘Apricity’) 64-bit
Библиотека кодирования : libebml v1.3.5 + libmatroska v1.4.8

Видео
Идентификатор : 1
Формат : AVC
Формат/Информация : Advanced Video Codec
Профиль формата : [email protected]
Настройки формата : CABAC / 2 Ref Frames
Параметр CABAC формата : Да
Параметр RefFrames формата : 2 кадра
Идентификатор кодека : V_MPEG4/ISO/AVC
Продолжительность : 1 ч. 40 м.
Битрейт : 4079 Кбит/сек
Ширина : 1280 пикселей
Высота : 720 пикселей
Соотношение сторон : 16:9
Режим частоты кадров : Постоянный
Частота кадров : 24,000 кадра/сек
Цветовое пространство : YUV
Субдискретизация насыщенности : 4:2:0
Битовая глубина : 8 бит
Тип развёртки : Прогрессивная
Бит/(Пиксели*Кадры) : 0.184
Размер потока : 2,87 Гбайт (93%)
Default : Да
Forced : Нет

Аудио #1
Идентификатор : 2
Формат : MPEG Audio
Версия формата : Version 1
Профиль формата : Layer 3
Настройки формата : Joint stereo
Идентификатор кодека : A_MPEG/L3
Идентификатор кодека/Подсказка : MP3
Продолжительность : 1 ч. 40 м.
Вид битрейта : Постоянный
Битрейт : 192 Кбит/сек
Каналы : 2 канала
Частота : 48,0 КГц
Частота кадров : 41,667 кадра/сек (1152 SPF)
Метод сжатия : С потерями
Размер потока : 139 Мбайт (4%)
Заголовок : RealFake
Язык : Russian
Default : Нет
Forced : Нет

Аудио #2
Идентификатор : 3
Формат : AAC
Формат/Информация : Advanced Audio Codec
Профиль формата : LC
Идентификатор кодека : A_AAC-2
Продолжительность : 1 ч. 40 м.
Битрейт : 98,7 Кбит/сек
Каналы : 2 канала
Расположение каналов : Front: L R
Частота : 44,1 КГц
Частота кадров : 43,066 кадра/сек (1024 SPF)
Метод сжатия : С потерями
Размер потока : 71,2 Мбайт (2%)
Язык : Chinese
Default : Да
Forced : Нет

Релиз от: RealFake

Добавлен 20-01-2018 22:56:51 (21 час назад)
Размер 3.08 GB (3308874368 Bytes)  





Добавить комментарий

Ваш e-mail не будет опубликован. Обязательные поля помечены *

*
*