Дом терпимости / The Seasoning House (2012) BDRip 720p | L1

Скачать торрент (Doddle Loader)

Зеркало 1 (Media Get)

Информация о фильме
Название: Дом терпимости
Оригинальное название: The Seasoning House
Год выхода: 2012
Жанр: триллер, ужасы
Режиссер: Пол Хайет
В ролях: Рози Дэй, Дэвид Лемберг, Аманда Уосс, Шон Кронин, Кевин Ховарт, Томи Мэй, Emma Britton, Эмили Такер, Кэти Аллен, Томас Вортингтон

Описание: Фильм рассказывает о девушке Энджел, которая вынуждена работать в доме, поставляющем молодых проституток военнослужащим. Но вместо того, чтобы работать проституткой, она становится помощницей управляющего борделем Виктора. Днем в ее обязанности входит приводить проституток в порядок после того, как их неоднократно насилуют. А ночью она исследует дом со всеми его закоулками. Затем она знакомится с новенькой девочкой, и становится свидетельницей ее регулярного жестокого изнасилования. После чего в дом прибывают военные, которые похитили Энджел и убили всю ее семью, что подталкивает ее придумать план мести.

Страна: Великобритания
Продолжительность: 01:29:31
Перевод: Любительский (одноголосый закадровый) den904
Субтитры: английские
Оригинальная аудиодорожка: английский

Файл
Качество: BDRip 720p
Видео: AVC (x264), 1280×544 (2,35:1) at 23,976 fps, 4000 Кbps, 0.230 bpp
Аудио 1: DTS; 768 Kbps; CBR; 6 ch; 48 khz | den904 |
Аудио 2: DTS; 768 Kbps; CBR; 6 ch; 48 khz | Английский |

Скриншоты

MediaInfo

Общее
Уникальный идентификатор : 224393332956845393812250583162232251804 (0xA8D0957C30BADD9995B7529C755C259C)
Полное имя : Дом терпимости.2012.L1.720p.BluRay.x264-HDHC.mkv
Формат : Matroska
Версия формата : Version 4 / Version 2
Размер файла : 3,44 Гбайт
Продолжительность : 1 ч. 29 м.
Общий поток : 5502 Кбит/сек
Название фильма : The Seasoning House (720p) (2012) VO
Дата кодирования : UTC 2014-06-14 14:47:05
Программа кодирования : mkvmerge v7.0.0 (‘Where We Going’) 32bit built on Jun 9 2014 15:08:34
Библиотека кодирования : libebml v1.3.0 + libmatroska v1.4.1

Видео
Идентификатор : 1
Формат : AVC
Формат/Информация : Advanced Video Codec
Профиль формата : [email protected]
Параметр CABAC формата : Да
Параметр ReFrames формата : 9 кадров
Идентификатор кодека : V_MPEG4/ISO/AVC
Продолжительность : 1 ч. 29 м.
Битрейт : 4000 Кбит/сек
Ширина : 1280 пикселей
Высота : 544 пикселя
Соотношение сторон : 2,35:1
Режим частоты кадров : Постоянный
Частота кадров : 25,000 кадров/сек
Цветовое пространство : YUV
Субдискретизация насыщенности : 4:2:0
Битовая глубина : 8 бит
Тип развёртки : Прогрессивная
Бит/(Пиксели*Кадры) : 0.230
Размер потока : 2,41 Гбайт (70%)
Заголовок : profile.php?mode=viewprofile&u=22488948
Библиотека кодирования : x264 core 136 r2348+704+51 d1baef6 tMod ([email protected]:2:0 X86_64)
Настройки программы : cabac=1 / ref=9 / deblock=1:-3:-3 / analyse=0x3:0x133 / me=umh / subme=11 / psy=1 / fade_compensate=0.00 / psy_rd=1.00:0.00 / mixed_ref=1 / me_range=32 / chroma_me=1 / trellis=2 / 8x8dct=1 / cqm=0 / deadzone=21,11 / fast_pskip=0 / chroma_qp_offset=-2 / threads=12 / lookahead_threads=2 / sliced_threads=0 / nr=0 / decimate=0 / interlaced=0 / bluray_compat=0 / constrained_intra=0 / fgo=0 / bframes=8 / b_pyramid=2 / b_adapt=2 / b_bias=0 / direct=3 / weightb=1 / open_gop=0 / weightp=2 / keyint=240 / keyint_min=24 / scenecut=40 / intra_refresh=0 / rc_lookahead=240 / rc=2pass / mbtree=1 / bitrate=4000 / ratetol=1.0 / qcomp=0.70 / qpmin=0:0:0 / qpmax=69:69:69 / qpstep=4 / cplxblur=20.0 / qblur=0.5 / ip_ratio=1.10 / aq=4:0.90 / aq-sensitivity=10.00 / aq-factor=1.00:1.00:1.00 / aq2=0 / aq3=0
Язык : English
Default : Да
Forced : Нет

Аудио #1
Идентификатор : 2
Формат : DTS
Формат/Информация : Digital Theater Systems
Режим : 16
Параметр Endianness формата : Big
Идентификатор кодека : A_DTS
Продолжительность : 1 ч. 29 м.
Вид битрейта : Постоянный
Битрейт : 768 Кбит/сек
Каналы : 6 каналов
Расположение каналов : Front: L C R, Side: L R, LFE
Частота : 48,0 КГц
Битовая глубина : 16 бит
Метод сжатия : С потерями
Размер потока : 492 Мбайт (14%)
Заголовок : VO (den904)
Язык : Russian
Default : Да
Forced : Нет

Аудио #2
Идентификатор : 3
Формат : DTS
Формат/Информация : Digital Theater Systems
Режим : 16
Параметр Endianness формата : Big
Идентификатор кодека : A_DTS
Продолжительность : 1 ч. 29 м.
Вид битрейта : Постоянный
Битрейт : 768 Кбит/сек
Каналы : 6 каналов
Расположение каналов : Front: L C R, Side: L R, LFE
Частота : 48,0 КГц
Битовая глубина : 24 бит
Метод сжатия : С потерями
Размер потока : 492 Мбайт (14%)
Язык : English
Default : Нет
Forced : Нет

Текст
Идентификатор : 4
Формат : UTF-8
Идентификатор кодека : S_TEXT/UTF8
Идентификатор кодека/Информация : UTF-8 Plain Text
Язык : English
Default : Нет
Forced : Нет

Меню
00:00:00.000 : :Chapter 01
00:06:51.880 : :Chapter 02
00:14:28.640 : :Chapter 03
00:21:24.640 : :Chapter 04
00:30:24.640 : :Chapter 05
00:39:45.920 : :Chapter 06
00:46:38.880 : :Chapter 07
00:54:54.000 : :Chapter 08
01:01:19.000 : :Chapter 09
01:09:06.000 : :Chapter 10
01:18:58.559 : :Chapter 11
01:26:01.200 : :Chapter 12

Добавлен 21-01-2018 20:54:24 (42 секунды назад)
Размер 3.44 GB (3694411773 Bytes)  





Добавить комментарий

Ваш e-mail не будет опубликован. Обязательные поля помечены *

*
*