Девушка в поезде / The Girl on the Train (2016) UHD BDRemux 2160p от ExKinoRay | 4K | HDR | D, A | Лицензия

Скачать торрент (Doddle Loader)

Зеркало 1 (Media Get)

Информация о фильме
Название: Девушка в поезде
Оригинальное название: The Girl on the Train
Год выхода: 2016
Жанр: Триллер, детектив
Режиссер: Тейт Тейлор
В ролях: Эмили Блант, Хейли Беннетт, Ребекка Фергюсон (II), Джастин Теру, Люк Эванс, Эдгар Рамирес, Лора Припон, Эллисон Джэнни, Даррен Голдштейн, Лиза Кудроу, Клета Элейн Эллингтон, Лана Янг, Рэйчел Кристофер, Грегори Морли, Джон Норрис, Фрэнк Анелло, Сергей Ашуров, Сидни Байц, Марко Кака

О фильме:
Каждый день поезд проносит Рэйчел мимо очаровательного коттеджа, где живет идеальная на первый взгляд пара. Но однажды идиллия разрушится — прекрасная незнакомка бесследно исчезнет. Рэйчел окажется втянута в весьма запутанную историю, ведь только она видела из окна то, что было скрыто ото всех.

Страна: США
Студия: Amblin Entertainment, DreamWorks SKG, Marc Platt Productions
Продолжительность: 01:52:06
Перевод(ы):
#1: Дублированный | Лицензия
#2: Авторский | Гаврилов
#3: Авторский | Немахов

Файл
Качество: BDRemux 2160p
Видео: MPEG-H HEVC HDR Video, 3840×2160, 59.0 Mbit/s, 23.976 fps
Звук:
Аудио #01: 48 kHz, DTS, 5.1, 768 Kbps | Дублированный |
Аудио #02: 48 kHz, AC3, 5.1, 448 Kbps | Дублированный |
Аудио #03: 48 kHz, AC3, 5.1, 384 Kbps | Авторский|
Аудио #04: 48 kHz, DTS-HD MA, 7.1, 3732 Kbps | Авторский |
Аудио #05: 48 kHz, DTS-HD MA, 7.1, 3454 kbps | Оригинал |
Субтитры: Русские (full, forced), английские

MI

General
Unique ID : 125304888911387774999340721381194270262 (0x5E44D801862AD329E42106D1C7730636)
Complete name : G:VideoSSDThe.Girl.on.the.Train.2016.BDREMUX.2160p.4K.UltraHD.HEVC.HDR.ExKinoRay.mkv
Format : Matroska
Format version : Version 4 / Version 2
File size : 53.1 GiB
Duration : 1 h 52 min
Overall bit rate : 67.7 Mb/s
Movie name : The Girl on the Train 2016 from ExKinoRay
Encoded date : UTC 2018-01-21 19:42:48
Writing application : mkvmerge v20.0.0 (‘I Am The Sun’) 64-bit
Writing library : libebml v1.3.5 + libmatroska v1.4.8

Video
ID : 1
Format : HEVC
Format/Info : High Efficiency Video Coding
Format profile : Main [email protected]@High
Codec ID : V_MPEGH/ISO/HEVC
Duration : 1 h 52 min
Bit rate : 59.0 Mb/s
Width : 3 840 pixels
Height : 2 160 pixels
Display aspect ratio : 16:9
Frame rate mode : Constant
Frame rate : 23.976 (24000/1001) FPS
Color space : YUV
Chroma subsampling : 4:2:0 (Type 2)
Bit depth : 10 bits
Bits/(Pixel*Frame) : 0.296
Stream size : 46.2 GiB (87%)
Writing library : ATEME Titan KFE 3.7.3 (4.7.3.1003)
Language : English
Default : Yes
Forced : No
Color range : Limited
Color primaries : BT.2020
Transfer characteristics : PQ
Matrix coefficients : BT.2020 non-constant
Mastering display color pri : R: x=0.680000 y=0.320000, G: x=0.265000 y=0.690000, B: x=0.150000 y=0.060000, White point: x=0.312700 y=0.329000
Mastering display luminance : min: 0.0050 cd/m2, max: 1000.0000 cd/m2
Maximum Content Light Level : 873 cd/m2
Maximum Frame-Average Light : 60 cd/m2

Audio #1
ID : 2
Format : DTS
Format/Info : Digital Theater Systems
Codec ID : A_DTS
Duration : 1 h 52 min
Bit rate mode : Constant
Bit rate : 768 kb/s
Channel(s) : 6 channels
Channel positions : Front: L C R, Side: L R, LFE
Sampling rate : 48.0 kHz
Frame rate : 93.750 FPS (512 SPF)
Bit depth : 24 bits
Compression mode : Lossy
Stream size : 616 MiB (1%)
Title : Dub-DTS (License)
Language : Russian
Default : Yes
Forced : No

Audio #2
ID : 3
Format : AC-3
Format/Info : Audio Coding 3
Codec ID : A_AC3
Duration : 1 h 52 min
Bit rate mode : Constant
Bit rate : 448 kb/s
Channel(s) : 6 channels
Channel positions : Front: L C R, Side: L R, LFE
Sampling rate : 48.0 kHz
Frame rate : 31.250 FPS (1536 SPF)
Bit depth : 16 bits
Compression mode : Lossy
Stream size : 359 MiB (1%)
Title : Dub-AC3 (License)
Language : Russian
Service kind : Complete Main
Default : No
Forced : No

Audio #3
ID : 4
Format : AC-3
Format/Info : Audio Coding 3
Codec ID : A_AC3
Duration : 1 h 52 min
Bit rate mode : Constant
Bit rate : 384 kb/s
Channel(s) : 6 channels
Channel positions : Front: L C R, Side: L R, LFE
Sampling rate : 48.0 kHz
Frame rate : 31.250 FPS (1536 SPF)
Bit depth : 16 bits
Compression mode : Lossy
Stream size : 308 MiB (1%)
Title : AVO (Gavrilov)
Language : Russian
Service kind : Complete Main
Default : No
Forced : No

Audio #4
ID : 5
Format : DTS
Format/Info : Digital Theater Systems
Format profile : MA / Core
Codec ID : A_DTS
Duration : 1 h 52 min
Bit rate mode : Variable / Constant
Bit rate : 3 732 kb/s / 1 509 kb/s
Channel(s) : 8 channels / 6 channels
Channel positions : Front: L C R, Side: L R, Back: L R, LFE / Front: L C R, Side: L R, LFE
Sampling rate : 48.0 kHz
Frame rate : 93.750 FPS (512 SPF)
Bit depth : 24 bits
Compression mode : Lossless / Lossy
Stream size : 2.92 GiB (6%)
Title : AVO (Nemahov)
Language : Russian
Default : No
Forced : No

Audio #5
ID : 6
Format : DTS
Format/Info : Digital Theater Systems
Format profile : X / MA / Core
Codec ID : A_DTS
Duration : 1 h 52 min
Bit rate mode : Variable / Variable / Constant
Bit rate : 3 454 kb/s / 3 454 kb/s / 1 509 kb/s
Channel(s) : Object Based / 8 channels / 6 channels
Channel positions : Object Based / Front: L C R, Side: L R, Back: L R, LFE / Front: L C R, Side: L R, LFE
Sampling rate : / 48.0 kHz / 48.0 kHz
Frame rate : 93.750 FPS (512 SPF)
Bit depth : / 24 bits / 24 bits
Compression mode : / Lossless / Lossy
Stream size : 2.70 GiB (5%)
Title : Original
Language : English
Default : No
Forced : No

Text #1
ID : 7
Format : UTF-8
Codec ID : S_TEXT/UTF8
Codec ID/Info : UTF-8 Plain Text
Duration : 1 h 51 min
Bit rate : 1 b/s
Count of elements : 34
Stream size : 1.26 KiB (0%)
Title : Forced
Language : Russian
Default : Yes
Forced : No

Text #2
ID : 8
Format : UTF-8
Codec ID : S_TEXT/UTF8
Codec ID/Info : UTF-8 Plain Text
Duration : 1 h 44 min
Bit rate : 76 b/s
Count of elements : 1183
Stream size : 58.7 KiB (0%)
Title : Full
Language : Russian
Default : No
Forced : No

Text #3
ID : 9
Format : UTF-8
Codec ID : S_TEXT/UTF8
Codec ID/Info : UTF-8 Plain Text
Duration : 1 h 44 min
Bit rate : 48 b/s
Count of elements : 1334
Stream size : 37.3 KiB (0%)
Title : Full
Language : English
Default : No
Forced : No

Menu
00:00:00.000 : en:00:00:00.000
00:06:01.778 : en:00:06:01.778
00:09:29.903 : en:00:09:29.903
00:18:15.970 : en:00:18:15.970
00:25:26.150 : en:00:25:26.150
00:32:04.506 : en:00:32:04.506
00:37:04.973 : en:00:37:04.973
00:44:52.315 : en:00:44:52.315
00:49:22.459 : en:00:49:22.459
00:55:07.012 : en:00:55:07.012
00:59:36.031 : en:00:59:36.031
01:03:34.811 : en:01:03:34.811
01:09:25.787 : en:01:09:25.787
01:14:36.430 : en:01:14:36.430
01:19:08.702 : en:01:19:08.702
01:23:44.728 : en:01:23:44.728
01:28:07.491 : en:01:28:07.491
01:33:49.457 : en:01:33:49.457
01:38:54.554 : en:01:38:54.554
01:45:55.182 : en:01:45:55.182

Релиз от: Автор релиза:
Подпишись на меня, кликни по картинке > :

Добавлен 21-01-2018 22:58:49 (21 час назад)
Размер 53.05 GB (56963608124 Bytes)  





Добавить комментарий

Ваш e-mail не будет опубликован. Обязательные поля помечены *

*
*