Битва преподов / Fist Fight (2017) BDRip-HEVC 1080p от HEVC CLUB | D, L | iTunes

Скачать торрент (Doddle Loader)

Зеркало 1 (Media Get)


Название: Битва преподов
Оригинальное название: Fist Fight


Год выпуска: 2017
Страна: США
Жанр: Комедия
Продолжительность: 01:31:01
Перевод: Дублированный (iTunes), Любительский многоголосый (Paradox&Omskbird Records)
Субтитры: Русские (forced, full), английские


Внимание! В многоголосом переводе присутствует ненормативная лексика.


В ролях: Чарли Дэй, Айс Кьюб, Трэйси Морган, Джиллиан Белл, Дин Норрис, Кристина Хендрикс, Кумэйл Нанджиани, Дэннис Хэйсбёрт, ДжоАнна Гарсиа Суишер
Режиссёр: Ричи Кин


Описание: Школьная комедия о взрослых разборках. Интеллигентный и кроткий школьный учитель Энди Кэмпбелл (Чарли Дэй) никак не может найти общий язык со своим брутальным и взрывным коллегой Роном Стриклэндом (Айс Кьюб). Единственный выход – добиться увольнения соперника, что Энди с успехом проворачивает, устроив очередной конфликт. Но он не подозревает, чем это может для него обернуться. Взбешённый таким поворотом событий Рон вызывает обидчика после занятий на настоящую разборку с мордобоем. Вся школа оповещена, все замерли в предвкушении. Зрелище обещает быть незабываемым и запомниться надолго!


Качество: BDRip-HEVC 1080p
Формат: MKV
Видео кодек: [email protected]
Аудио кодек: AC3
Видео: 1920×1080, 23.976 fps, HEVC, ~9555 kbps, 10bit
Аудио: Rus, 48 kHz/16-bit, AC3 5.1, ~384 kbps | Дубляж
Аудио: Rus, 48 kHz/16-bit, AC3 2.0, ~192 kbps | Многоголосый
Аудио: Eng, 48 kHz/16-bit, AC3 5.1, ~640 kbps | Оригинал
Навигация по главам: Присутствует


Автор рипа: Alex_A




Внимание!

— H.265/HEVC (High Efficiency Video Coding) — это новый стандарт кодирования видео.
— Стандарт H.265/HEVC является логическим продолжением стандарта H.264/AVC (Advanced Video Coding), и характеризуется более эффективными алгоритмами сжатия, а также поддержкой высокого разрешения вплоть до 8K UHD (8192×4320). Первая версия стандарта H.265 была опубликована в начале 2013 года.
— Рипы в фомате HEVC поддерживается не всеми аппаратными проигрывателями.
— Для корректного воспроизведения может потребоваться обновление ПО.
— Владельцам несовместимого железа просьба не беспокоить, есть альтернативные релизы.

Медиаинфо

General
Unique ID : 297129593009911438359008179968624114670 (0xDF8913FB5B225A85E191DF1A56193BEE)
Complete name : e:HEVCFist Fight (2017) iTunesFist.Fight.2017.1080p.iTunes_HEVCCLUB.mkv
Format : Matroska
Format version : Version 4 / Version 2
File size : 6.85 GiB
Duration : 1 h 31 min
Overall bit rate : 10.8 Mb/s
Movie name : Fist Fight (2017) — HEVC CLUB
Encoded date : UTC 2018-01-22 12:03:03
Writing application : mkvmerge v20.0.0 (‘I Am The Sun’) 64-bit
Writing library : libebml v1.3.5 + libmatroska v1.4.8
Cover : Yes
Attachments : Cover.jpg

Video
ID : 1
Format : HEVC
Format/Info : High Efficiency Video Coding
Format profile : Main [email protected]@High
Codec ID : V_MPEGH/ISO/HEVC
Duration : 1 h 31 min
Bit rate : 9 555 kb/s
Width : 1 920 pixels
Height : 1 080 pixels
Display aspect ratio : 16:9
Frame rate mode : Constant
Frame rate : 23.976 (24000/1001) FPS
Color space : YUV
Chroma subsampling : 4:2:0
Bit depth : 10 bits
Bits/(Pixel*Frame) : 0.192
Stream size : 6.08 GiB (89%)
Title : HEVC CLUB
Writing library : x265 2.3+30-c7b7c736696f:(Windows)(GCC 6.3.0)(64 bit) 10bit
Encoding settings : cpuid=1173503 / frame-threads=3 / numa-pools=8 / wpp / no-pmode / no-pme / no-psnr / ssim / log-level=2 / input-csp=1 / input-res=1920×1080 / interlace=0 / total-frames=0 / level-idc=41 / high-tier=1 / uhd-bd=0 / ref=5 / no-allow-non-conformance / repeat-headers / annexb / aud / hrd / info / hash=0 / no-temporal-layers / open-gop / min-keyint=23 / keyint=250 / bframes=10 / b-adapt=2 / b-pyramid / bframe-bias=0 / rc-lookahead=60 / lookahead-slices=1 / scenecut=40 / no-intra-refresh / ctu=64 / min-cu-size=8 / no-rect / no-amp / max-tu-size=32 / tu-inter-depth=3 / tu-intra-depth=3 / limit-tu=0 / rdoq-level=1 / dynamic-rd=2.00 / signhide / no-tskip / nr-intra=0 / nr-inter=0 / no-constrained-intra / no-strong-intra-smoothing / max-merge=2 / limit-refs=3 / no-limit-modes / me=1 / subme=7 / merange=64 / temporal-mvp / weightp / weightb / no-analyze-src-pics / deblock=-3:-3 / no-sao / no-sao-non-deblock / rd=4 / no-early-skip / no-rskip / no-fast-intra / no-tskip-fast / no-cu-lossless / no-b-intra / rdpenalty=0 / psy-rd=3.00 / psy-rdoq=2.00 / no-rd-refine / analysis-mode=0 / no-lossless / cbqpoffs=0 / crqpoffs=0 / rc=crf / crf=22.0 / qcomp=0.80 / qpstep=6 / stats-write=0 / stats-read=0 / vbv-maxrate=50000 / vbv-bufsize=50000 / vbv-init=0.9 / crf-max=0.0 / crf-min=0.0 / ipratio=1.50 / pbratio=1.00 / aq-mode=1 / aq-strength=0.50 / no-cutree / zone-count=0 / no-strict-cbr / qg-size=32 / no-rc-grain / qpmax=69 / qpmin=0 / sar=1 / overscan=0 / videoformat=5 / range=0 / colorprim=2 / transfer=2 / colormatrix=1 / chromaloc=0 / display-window=0 / max-cll=0,0 / min-luma=0 / max-luma=1023 / log2-max-poc-lsb=8 / vui-timing-info / vui-hrd-info / slices=1 / opt-qp-pps / opt-ref-list-length-pps / no-multi-pass-opt-rps / scenecut-bias=0.05 / no-opt-cu-delta-qp / aq-motion / no-hdr / no-hdr-opt / refine-level=5 / no-limit-sao
Default : Yes
Forced : Yes
Color range : Limited
Matrix coefficients : BT.709

Audio #1
ID : 2
Format : AC-3
Format/Info : Audio Coding 3
Codec ID : A_AC3
Duration : 1 h 31 min
Bit rate mode : Constant
Bit rate : 384 kb/s
Channel(s) : 6 channels
Channel positions : Front: L C R, Side: L R, LFE
Sampling rate : 48.0 kHz
Frame rate : 31.250 FPS (1536 SPF)
Bit depth : 16 bits
Compression mode : Lossy
Stream size : 250 MiB (4%)
Title : Dub (iTunes)
Language : Russian
Service kind : Complete Main
Default : Yes
Forced : No

Audio #2
ID : 3
Format : AC-3
Format/Info : Audio Coding 3
Codec ID : A_AC3
Duration : 1 h 31 min
Bit rate mode : Constant
Bit rate : 192 kb/s
Channel(s) : 2 channels
Channel positions : Front: L R
Sampling rate : 48.0 kHz
Frame rate : 31.250 FPS (1536 SPF)
Bit depth : 16 bits
Compression mode : Lossy
Stream size : 125 MiB (2%)
Title : MVO (Paradox&Omskbird Records)
Language : Russian
Service kind : Complete Main
Default : No
Forced : No

Audio #3
ID : 4
Format : AC-3
Format/Info : Audio Coding 3
Codec ID : A_AC3
Duration : 1 h 31 min
Bit rate mode : Constant
Bit rate : 640 kb/s
Channel(s) : 6 channels
Channel positions : Front: L C R, Side: L R, LFE
Sampling rate : 48.0 kHz
Frame rate : 31.250 FPS (1536 SPF)
Bit depth : 16 bits
Compression mode : Lossy
Stream size : 417 MiB (6%)
Title : Original
Language : English
Service kind : Complete Main
Default : No
Forced : No

Text #1
ID : 5
Format : UTF-8
Codec ID : S_TEXT/UTF8
Codec ID/Info : UTF-8 Plain Text
Duration : 1 h 26 min
Bit rate : 0 b/s
Count of elements : 7
Stream size : 361 Bytes (0%)
Title : Forced
Language : Russian
Default : Yes
Forced : No

Text #2
ID : 6
Format : UTF-8
Codec ID : S_TEXT/UTF8
Codec ID/Info : UTF-8 Plain Text
Duration : 1 h 30 min
Bit rate : 150 b/s
Count of elements : 1881
Stream size : 100.0 KiB (0%)
Title : Full
Language : Russian
Default : No
Forced : No

Text #3
ID : 7
Format : UTF-8
Codec ID : S_TEXT/UTF8
Codec ID/Info : UTF-8 Plain Text
Duration : 1 h 30 min
Bit rate : 94 b/s
Count of elements : 1876
Stream size : 62.2 KiB (0%)
Title : Full
Language : English
Default : No
Forced : No

Text #4
ID : 8
Format : UTF-8
Codec ID : S_TEXT/UTF8
Codec ID/Info : UTF-8 Plain Text
Duration : 1 h 30 min
Bit rate : 98 b/s
Count of elements : 1979
Stream size : 65.8 KiB (0%)
Title : SDH
Language : English
Default : No
Forced : No

Menu
00:00:00.000 : en:00:00:00.000
00:09:54.010 : en:00:09:54.010
00:20:36.527 : en:00:20:36.527
00:29:52.290 : en:00:29:52.290
00:44:00.471 : en:00:44:00.471
00:50:11.217 : en:00:50:11.217
01:02:44.844 : en:01:02:44.844
01:10:16.754 : en:01:10:16.754
01:19:36.021 : en:01:19:36.021
01:24:07.125 : en:01:24:07.125

Скриншоты


Добавлен 22-01-2018 21:05:50 (3 секунды назад)
Размер 6.85 GB (7355827647 Bytes)  





Добавить комментарий

Ваш e-mail не будет опубликован. Обязательные поля помечены *

*
*