Безмолвный свидетель / Молчание / Chimmuk (2017) WEBRip 1080p | L2

Скачать торрент (Doddle Loader)

Зеркало 1 (Media Get)

Информация о фильме
Название: Безмолвный свидетель / Молчание
Оригинальное название: Chimmuk
Год выхода: 2017
Жанр: триллер, драма
Режиссер: Чон Джи У
В ролях: Пак Щин Хъе, Рю Чжун Ёль, Чхве Мин Щик, Пак Хэ Чжун, Чо Хан Чхоль, Ли Ха Ни

О фильме:
Дочь чеболя, Им Ми Ра, подозревается в убийстве своей будущей мачехи. Все улики против девушки, даже собственный отец просит её признаться. Только старая знакомая, адвокат, верит в невиновность Ми Ра. В ходе расследования на поверхность всплывают все новые подробности дела.


Страна: Южная Корея
Продолжительность: 02:04:59
Перевод: Любительский, двухголосый, закадровый (перевод: FSG Zipper, озвучка: студия «Колобок», закадровый текст читали: DeadSno и Den904)

Примечание: присутствует ненормативная лексика!

Файл
Кодек: V_MPEG4/ISO/AVC
Качество: WEBRip 1080p
Видео: 1920×1080 (16:9), 29.970 FPS, 5120 kb/s kb/s
Звук: AC-3, 48.0 kHz, 2ch, 192 kb/s
Субтитры: нет

Скриншоты

MediaInfo

General
Unique ID : 208689178780348279844321739555329151888 (0x9D0012E7B84CCB858BA7C3C17BA61390)
Complete name : Безмолвный свидетель (Студия Колобок).mkv
Format : Matroska
Format version : Version 4 / Version 2
File size : 4.63 GiB
Duration : 2 h 5 min
Overall bit rate : 5 295 kb/s
Encoded date : UTC 2018-01-19 13:13:29
Writing application : mkvmerge v6.2.0 (‘Promised Land’) built on Apr 28 2013 12:22:01
Writing library : libebml v1.3.0 + libmatroska v1.4.0

Video
ID : 1
Format : AVC
Format/Info : Advanced Video Codec
Format profile : [email protected]
Format settings, CABAC : Yes
Format settings, RefFrames : 5 frames
Format settings, GOP : M=4, N=29
Codec ID : V_MPEG4/ISO/AVC
Duration : 2 h 5 min
Bit rate : 5 120 kb/s
Width : 1 920 pixels
Height : 1 080 pixels
Display aspect ratio : 16:9
Frame rate mode : Constant
Frame rate : 29.970 (30000/1001) FPS
Color space : YUV
Chroma subsampling : 4:2:0
Bit depth : 8 bits
Scan type : Progressive
Bits/(Pixel*Frame) : 0.082
Stream size : 4.37 GiB (94%)
Writing library : x264 core 148 r2768 d32d7bf
Encoding settings : cabac=1 / ref=5 / deblock=1:0:0 / analyse=0x3:0x113 / me=hex / subme=8 / psy=1 / psy_rd=1.00:0.00 / mixed_ref=1 / me_range=16 / chroma_me=1 / trellis=2 / 8x8dct=1 / cqm=0 / deadzone=21,11 / fast_pskip=1 / chroma_qp_offset=-2 / threads=24 / lookahead_threads=4 / sliced_threads=0 / nr=0 / decimate=1 / interlaced=0 / bluray_compat=0 / stitchable=1 / constrained_intra=0 / bframes=3 / b_pyramid=2 / b_adapt=1 / b_bias=0 / direct=3 / weightb=1 / open_gop=0 / weightp=2 / keyint=29 / keyint_min=15 / scenecut=40 / intra_refresh=0 / rc_lookahead=29 / rc=2pass / mbtree=1 / bitrate=5120 / ratetol=1.0 / qcomp=0.60 / qpmin=0 / qpmax=69 / qpstep=4 / cplxblur=20.0 / qblur=0.5 / ip_ratio=1.40 / aq=1:1.00
Default : Yes
Forced : No

Audio
ID : 2
Format : AC-3
Format/Info : Audio Coding 3
Format settings, Endianness : Big
Codec ID : A_AC3
Duration : 2 h 5 min
Bit rate mode : Constant
Bit rate : 192 kb/s
Channel(s) : 2 channels
Channel positions : Front: L R
Sampling rate : 48.0 kHz
Frame rate : 31.250 FPS (1536 SPF)
Bit depth : 16 bits
Compression mode : Lossy
Delay relative to video : -33 ms
Stream size : 172 MiB (4%)
Service kind : Complete Main
Default : Yes
Forced : No

Релиз от:

Добавлен 22-01-2018 17:26:25 (3 минуты назад)
Размер 4.63 GB (4974355031 Bytes)  





Добавить комментарий

Ваш e-mail не будет опубликован. Обязательные поля помечены *

*
*