Аватар / Avatar (2009) BDRip-HEVC 720p от R.G. HD-Films | 60 fps | Extended Collector’s Edition

Скачать торрент (Doddle Loader)

Зеркало 1 (Media Get)

Аватар / Avatar
Год выпуска: 2009
Страна: США, Великобритания
Жанр: фантастика, боевик, драма, приключения
Продолжительность: 02:58:09
Перевод: Дубляж, Оригинал
Субтитры: русские (экстраполные, экстрафорсированные: стилизованные, цветные), английские (полные, экстрафорсированные, SDH, SDH цветные)

Режиссер: Джеймс Кэмерон

В ролях: Сэм Уортингтон, Зои Салдана, Сигурни Уивер, Стивен Лэнг, Мишель Родригес, Джованни Рибизи, Джоэль Мур, Си Си Эйч Паундер, Уэс Студи, Лас Алонсо

Описание: Джейк Салли — бывший морской пехотинец, прикованный к инвалидному креслу. Несмотря на немощное тело, Джейк в душе по-прежнему остается воином. Он получает задание совершить путешествие в несколько световых лет к базе землян на планете Пандора, где корпорации добывают редкий минерал, имеющий огромное значение для выхода Земли из энергетического кризиса.

Доп. информация: Данный релиз основан на 16-ом обновлении с применением технологии HEVC.

Качество: BDRip 720p / 60 FPS by Tiberiumsun69
Формат: MKV
Видео кодек: H.265
Аудио кодек: AC3
Видео: HEVC, 1280×720 (16:9), 4000 kbps, 60.000 fps, 0.072 bpp
Аудио#1: AC3 / 5.1 / 48 kHz / 640 kbps / 16 bit | DUB — Blu-ray CEE
Аудио#2: AC3 / 5.1 / 48 kHz / 640 kbps / 16 bit | Original

Скриншоты

MediaInfo

General
Unique ID : 142419559750168028645448126639624059776 (0x6B25026D360C83D885BF523821A27B80)
Complete name : F:ТоррентыАватар BDRip-HEVC 720p 60fps.mkv
Format : Matroska
Format version : Version 4 / Version 2
File size : 6.54 GiB
Duration : 2 h 58 min
Overall bit rate : 5 258 kb/s
Movie name : Avatar (2009) by Tiberiumsun69
Encoded date : UTC 2018-01-22 04:51:12
Writing application : mkvmerge v20.0.0 (‘I Am The Sun’) 64-bit
Writing library : libebml v1.3.5 + libmatroska v1.4.8

Video
ID : 1
Format : HEVC
Format/Info : High Efficiency Video Coding
Format profile : Main [email protected]@Main
Codec ID : V_MPEGH/ISO/HEVC
Duration : 2 h 58 min
Bit rate : 3 973 kb/s
Width : 1 280 pixels
Height : 720 pixels
Display aspect ratio : 16:9
Frame rate mode : Constant
Frame rate : 60.000 FPS
Color space : YUV
Chroma subsampling : 4:2:0
Bit depth : 10 bits
Bits/(Pixel*Frame) : 0.072
Stream size : 4.94 GiB (76%)
Default : Yes
Forced : No

Audio #1
ID : 2
Format : AC-3
Format/Info : Audio Coding 3
Codec ID : A_AC3
Duration : 2 h 58 min
Bit rate mode : Constant
Bit rate : 640 kb/s
Channel(s) : 6 channels
Channel positions : Front: L C R, Side: L R, LFE
Sampling rate : 48.0 kHz
Frame rate : 31.250 FPS (1536 SPF)
Bit depth : 16 bits
Compression mode : Lossy
Stream size : 816 MiB (12%)
Title : АС3 5.1 @ 640 kbps — Dub, BD EUR
Language : Russian
Service kind : Complete Main
Default : No
Forced : No

Audio #2
ID : 3
Format : AC-3
Format/Info : Audio Coding 3
Codec ID : A_AC3
Duration : 2 h 58 min
Bit rate mode : Constant
Bit rate : 640 kb/s
Channel(s) : 6 channels
Channel positions : Front: L C R, Side: L R, LFE
Sampling rate : 48.0 kHz
Frame rate : 31.250 FPS (1536 SPF)
Bit depth : 16 bits
Compression mode : Lossy
Stream size : 816 MiB (12%)
Title : АС3 5.1 @ 640 kbps — Original
Language : English
Service kind : Complete Main
Default : No
Forced : No

Text #1
ID : 4
Format : ASS
Codec ID : S_TEXT/ASS
Codec ID/Info : Advanced Sub Station Alpha
Duration : 2 h 53 min
Bit rate : 100 b/s
Count of elements : 1726
Compression mode : Lossless
Stream size : 128 KiB (0%)
Title : ExtraFull (Stylezed)
Language : Russian
Default : No
Forced : No

Text #2
ID : 5
Format : ASS
Codec ID : S_TEXT/ASS
Codec ID/Info : Advanced Sub Station Alpha
Duration : 2 h 46 min
Bit rate : 13 b/s
Count of elements : 219
Compression mode : Lossless
Stream size : 16.3 KiB (0%)
Title : ExtraForced (Stylezed)
Language : Russian
Default : Yes
Forced : No

Text #3
ID : 6
Format : UTF-8
Codec ID : S_TEXT/UTF8
Codec ID/Info : UTF-8 Plain Text
Duration : 2 h 53 min
Bit rate : 68 b/s
Count of elements : 1723
Stream size : 87.8 KiB (0%)
Title : ExtraFull
Language : Russian
Default : No
Forced : No

Text #4
ID : 7
Format : UTF-8
Codec ID : S_TEXT/UTF8
Codec ID/Info : UTF-8 Plain Text
Duration : 2 h 46 min
Bit rate : 11 b/s
Count of elements : 219
Stream size : 13.5 KiB (0%)
Title : ExtraForced
Language : Russian
Default : No
Forced : No

Text #5
ID : 8
Format : UTF-8
Codec ID : S_TEXT/UTF8
Codec ID/Info : UTF-8 Plain Text
Duration : 2 h 53 min
Bit rate : 71 b/s
Count of elements : 1723
Stream size : 91.5 KiB (0%)
Title : ExtraFull Colored
Language : Russian
Default : No
Forced : No

Text #6
ID : 9
Format : UTF-8
Codec ID : S_TEXT/UTF8
Codec ID/Info : UTF-8 Plain Text
Duration : 2 h 46 min
Bit rate : 11 b/s
Count of elements : 219
Stream size : 13.5 KiB (0%)
Title : ExtraForced Colored
Language : Russian
Default : No
Forced : No

Text #7
ID : 10
Format : UTF-8
Codec ID : S_TEXT/UTF8
Codec ID/Info : UTF-8 Plain Text
Duration : 2 h 53 min
Bit rate : 40 b/s
Count of elements : 1683
Stream size : 51.1 KiB (0%)
Title : Full
Language : English
Default : No
Forced : No

Text #8
ID : 11
Format : UTF-8
Codec ID : S_TEXT/UTF8
Codec ID/Info : UTF-8 Plain Text
Duration : 1 h 59 min
Bit rate : 2 b/s
Count of elements : 82
Stream size : 1.80 KiB (0%)
Title : ExtraForced
Language : English
Default : No
Forced : No

Text #9
ID : 12
Format : UTF-8
Codec ID : S_TEXT/UTF8
Codec ID/Info : UTF-8 Plain Text
Duration : 2 h 57 min
Bit rate : 45 b/s
Count of elements : 2203
Stream size : 58.6 KiB (0%)
Title : Full SDH
Language : English
Default : No
Forced : No

Text #10
ID : 13
Format : UTF-8
Codec ID : S_TEXT/UTF8
Codec ID/Info : UTF-8 Plain Text
Duration : 2 h 57 min
Bit rate : 60 b/s
Count of elements : 2203
Stream size : 79.2 KiB (0%)
Title : Full SDH Colored
Language : English
Default : No
Forced : No

Menu
00:00:00.000 : :01. Lost Soul
00:05:25.575 : :02. A New World
00:10:12.278 : :03. You Are Not In Kansas Anymore
00:11:47.916 : :04. «This Is Your Avatar Now, Jake.»
00:15:59.208 : :05. «This Is Why We’re Here…»
00:17:54.782 : :06. First Awakening
00:23:54.892 : :07. Colonel Quaritch
00:27:54.548 : :08. First Sortie
00:30:27.617 : :09. Abandoned Schoolhouse
00:32:27.904 : :10. Thanator Chase
00:37:16.526 : :11. A Sign
00:39:08.054 : :12. Viperwolves
00:41:18.476 : :13. Neytiri
00:49:16.912 : :14. The Omaticaya Clan
00:55:42.214 : :15. Cover Report
01:01:09.416 : :16. The Hallelujah Mountains
01:07:03.228 : :17. Learn Fast Or Die
01:11:50.223 : :18. A Mother’s Pain
01:15:53.799 : :19. Banshee Rookery
01:22:38.120 : :20. First Flight
01:26:12.709 : :21. Clan Hunt
01:27:42.299 : :22. Last Shadow
01:33:00.408 : :23. A Son Of The Omaticaya
01:37:36.893 : :24. Willow Glade Destruction
01:44:15.291 : :25. Conflict Escalation
01:50:02.596 : :26. «You Will Never Be One Of The People!»
01:51:53.582 : :27. Assault On Hometree
01:58:30.895 : :28. Aftermath
02:02:13.284 : :29. Escape From Hell’s Gate
02:07:51.664 : :30. There’s Something We Gotta Do…»
02:09:30.554 : :31. Toruk Macto
02:12:36.615 : :32. «She’s Real»
02:16:03.364 : :33. Recruiting The Clans
02:19:31.655 : :34. Preamble To Battle
02:23:59.631 : :35. Battle For Pandora
02:30:05.079 : :36. Fall Of The Heroes
02:33:56.853 : :37. Eywa
02:40:02.259 : :38. Quaritch Fight
02:45:33.215 : :39. «I See You»
02:46:48.498 : :40. My Brother
02:48:56.793 : :41. Transformation
02:51:32.073 : :42. End Credits

Log x265

VIDEO ENCODING
——————————
Encoding video to: F:Temp004.265
x265 10-bit depth 4000kbps 1280×720 59.974fps (641081 frames)

avs4x26x.exe: -L x265_10b.exe «F:Temp004.avs» —bitrate 4000 —preset medium —profile main10 —level-idc 4.0 —sar 1:1 —output «F:Temp004.265»

yuv (info): 1280×720 fps 29987/500 i420p8 sar 1:1 unknown frame count
x265 (info): HEVC encoder version 1.5+129-018e8bbaa854
x265 (info): build info (Windows)(GCC 4.8.2)(32 bit) 16bpp
x265 (info): using cpu capabilities: MMX2 SSE2Fast SSSE3 SSE4.2 AVX AVX2 FMA3 LZCNT BMI2
x265 (info): Main 10 profile, Level-4 (Main tier)
x265 (info): Thread pool created using 8 threads
x265 (info): frame threads / pool features : 3 / wpp(12 rows)
x265 (info): Internal bit depth : 10
x265 (info): Coding QT: max CU size, min CU size : 64 / 8
x265 (info): Residual QT: max TU size, max depth : 32 / 1 inter / 1 intra
x265 (info): ME / range / subpel / merge : hex / 57 / 2 / 2
x265 (info): Keyframe min / max / scenecut : 25 / 250 / 40
x265 (info): Lookahead / bframes / badapt : 20 / 4 / 2
x265 (info): b-pyramid / weightp / weightb / refs: 1 / 1 / 0 / 3
x265 (info): Rate Control / AQ-Strength / CUTree : ABR-4000 kbps / 1.0 / 1
x265 (info): tools: rd=3 psy-rd=0.30 deblock sao signhide tmvp

x265 (info): frame I: 3281, Avg QP:18.85 kb/s: 32044.23
x265 (info): frame P: 160839, Avg QP:19.68 kb/s: 11407.66
x265 (info): frame B: 476961, Avg QP:24.71 kb/s: 1270.58
x265 (info): global : 641081, Avg QP:23.42 kb/s: 3971.34
x265 (info): Weighted P-Frames: Y:7.0% UV:5.5%
x265 (info): consecutive B-frames: 2.1% 2.2% 4.1% 86.0% 5.5%

x265 (total): encoded 641081 frames in 51873.01s (12.36 fps), 3971.34 kb/s
avs (info): AviSynth 2.60, build:Feb 20 2015 (03:16:45)
avs (info): Video colorspace: YV12
avs (info): Video resolution: 1280×720
avs (info): Video framerate: 29987/500
avs (info): Video framecount: 641081
avs4x26x (info): «x265_10b.exe» — —bitrate 4000 —preset medium —profile main10 —level-idc 4.0 —sar 1:1 —output F:Temp004.265 —frames 641081 —fps 29987/500 —input-res 1280×720 —input-csp i420

Добавлен 22-01-2018 9:21:53 (12 секунды назад)
Размер 6.54 GB (7025827931 Bytes)  





Добавить комментарий

Ваш e-mail не будет опубликован. Обязательные поля помечены *

*
*