Атомная школа 2 / Class of Nuke ‘Em High Part II: Subhumanoid Meltdown (1991) BDRemux 1080р | L1

Скачать торрент (Doddle Loader)

Зеркало 1 (Media Get)

Информация о фильме
Название: Атомная школа 2
Оригинальное название: Class of Nuke ‘Em High Part II: Subhumanoid Meltdown
Год выхода: 1991
Жанр: фантастика, комедия, ужасы
Режиссер: Эрик Лузил, Дональд Дж. Джексон
В ролях: Брик Бронск, Лиза Гайе, Майкл Кертц, Скотт Резник, Джеки Моэн, Роберт Доусон, Фил Риво, Шэрон Э. Гарднер

Описание: На этот раз радиоактивному заражению подвергся Тромовилльский технологический институт. В результате утечки ядерных отходов белки, живущие на деревьях
у школы увеличились до 2-х метров и поумнели, а пупок одной из учениц заговорил благим матом…

Страна: США
Продолжительность: 01:35:34
Перевод: Любительский (одноголосый закадровый) den904
Субтитры: отсутствуют
Оригинальная аудиодорожка: английский

Файл
Качество: BDRemux 1080р
Видео: 1920×1080 / MPEG-4 AVC Video / 20155 kbps / 23.976 fps / 16:9 / High Profile 4.1
Аудио 1: Русский, AC3 2.0 224 Kbps 48,0 КГц (den904)
Аудио 2: English, AC3 2.0 192 kbps 48,0 КГц (Original)
Аудио 3: English, AC3 2.0 192 Kbps 48,0 КГц (Commentary)

Скриншоты

MediaInfo

Общее
Уникальный идентификатор : 177762799075736986848657255443711315527 (0x85BBDEA97F00E70FBEAACA86889ACE47)
Полное имя : Class.Of.Nuke.Em.High.II.BDRemux.1080p.Rus.Eng.mkv
Формат : Matroska
Версия формата : Version 4 / Version 2
Размер файла : 13,9 Гбайт
Продолжительность : 1 ч. 35 м.
Режим общего битрейта : Переменный
Общий поток : 20,8 Мбит/сек
Название фильма : CLASS OF NUKE EM HIGH 2
Дата кодирования : UTC 2018-01-21 06:50:11
Программа кодирования : mkvmerge v9.8.0 (‘Kuglblids’) 32bit
Библиотека кодирования : libebml v1.3.4 + libmatroska v1.4.5

Видео
Идентификатор : 1
Формат : AVC
Формат/Информация : Advanced Video Codec
Профиль формата : [email protected]
Параметр CABAC формата : Да
Параметр ReFrames формата : 3 кадра
Параметр GOP формата : M=3, N=12
Идентификатор кодека : V_MPEG4/ISO/AVC
Продолжительность : 1 ч. 35 м.
Вид битрейта : Переменный
Битрейт : 20,2 Мбит/сек
Максимальный битрейт : 26,5 Мбит/сек
Ширина : 1920 пикселей
Высота : 1080 пикселей
Соотношение сторон : 16:9
Режим частоты кадров : Постоянный
Частота кадров : 23,976 (24000/1001) кадра/сек
Стандарт вещания : NTSC
Цветовое пространство : YUV
Субдискретизация насыщенности : 4:2:0
Битовая глубина : 8 бит
Тип развёртки : Прогрессивная
Бит/(Пиксели*Кадры) : 0.405
Размер потока : 13,5 Гбайт (97%)
Заголовок : CLASS OF NUKE EM HIGH 2
Default : Нет
Forced : Нет
Цветовой диапазон : Limited
Основные цвета : BT.709
Характеристики трансфера : BT.709
Коэффициенты матрицы : BT.709

Аудио #1
Идентификатор : 2
Формат : AC-3
Формат/Информация : Audio Coding 3
Расширение режима : CM (complete main)
Параметр Endianness формата : Big
Идентификатор кодека : A_AC3
Продолжительность : 1 ч. 35 м.
Вид битрейта : Постоянный
Битрейт : 224 Кбит/сек
Каналы : 2 канала
Расположение каналов : Front: L R
Частота : 48,0 КГц
Частота кадров : 31,250 кадров/сек (1536 spf)
Битовая глубина : 16 бит
Метод сжатия : С потерями
Размер потока : 153 Мбайт (1%)
Заголовок : den904 AC3 2.0 224 kbps
Язык : Russian
Default : Нет
Forced : Нет

Аудио #2
Идентификатор : 3
Формат : AC-3
Формат/Информация : Audio Coding 3
Расширение режима : CM (complete main)
Параметр Endianness формата : Big
Идентификатор кодека : A_AC3
Продолжительность : 1 ч. 35 м.
Вид битрейта : Постоянный
Битрейт : 192 Кбит/сек
Каналы : 2 канала
Расположение каналов : Front: L R
Частота : 48,0 КГц
Частота кадров : 31,250 кадров/сек (1536 spf)
Битовая глубина : 16 бит
Метод сжатия : С потерями
Размер потока : 131 Мбайт (1%)
Заголовок : Original AC3 2.0 192 kbps
Язык : English
Default : Нет
Forced : Нет

Аудио #3
Идентификатор : 4
Формат : AC-3
Формат/Информация : Audio Coding 3
Расширение режима : CM (complete main)
Параметр Endianness формата : Big
Идентификатор кодека : A_AC3
Продолжительность : 1 ч. 35 м.
Вид битрейта : Постоянный
Битрейт : 192 Кбит/сек
Каналы : 2 канала
Расположение каналов : Front: L R
Частота : 48,0 КГц
Частота кадров : 31,250 кадров/сек (1536 spf)
Битовая глубина : 16 бит
Метод сжатия : С потерями
Размер потока : 131 Мбайт (1%)
Заголовок : Commentary AC3 2.0 192 kbps
Язык : English
Default : Нет
Forced : Нет

Меню
00:00:00.000 : en:00:00:00.000
00:06:20.005 : en:00:06:20.005
00:12:01.721 : en:00:12:01.721
00:18:07.712 : en:00:18:07.712
00:24:04.068 : en:00:24:04.068
00:30:00.966 : en:00:30:00.966
00:36:04.079 : en:00:36:04.079
00:41:40.540 : en:00:41:40.540
00:48:03.297 : en:00:48:03.297
00:54:02.030 : en:00:54:02.030
01:00:01.681 : en:01:00:01.681
01:06:27.192 : en:01:06:27.192
01:12:02.568 : en:01:12:02.568
01:18:00.926 : en:01:18:00.926
01:24:03.080 : en:01:24:03.080
01:29:56.850 : en:01:29:56.850

Добавлен 21-01-2018 12:09:23 (39 секунд назад)
Размер 13.86 GB (14883075392 Bytes)  





Добавить комментарий

Ваш e-mail не будет опубликован. Обязательные поля помечены *

*
*