Акты насилия / Acts of Violence (2018) WEB-DLRip-AVC от ExKinoRay | L1

Скачать торрент (Doddle Loader)

Зеркало 1 (Media Get)

Информация о фильме
Название: Акты насилия
Оригинальное название: Acts of Violence
Год выхода: 2018
Жанр: Боевик, драма
Режиссер: Бретт Доноху
В ролях: Брюс Уиллис, Коул Хаузер, Шон Эшмор, Эштон Холмс, Мелисса Болона, Шон Броснан, София Буш, Майк Эппс, Тиффани Броувер, Дженна Б. Келли

О фильме :
Долгое время молодые девушки становятся жертвами Макса Ливингтона — торговца людьми. Десяток случаев находится в поле зрения полиции. Но однажды настал предел. Очередная жертва оказалась сестрой бывшего военного, который решил самостоятельно спасти ее. Он обращается за помощью к своим сослуживцам. Им помогает полицейский, который давно следит за Ливингтоном. На этот раз ему не удастся уйти от возмездия…

Выпущено: Великобритания, США
Студия: Colecar Productions
Продолжительность: 01:26:46
Перевод: Любительский (одноголосый закадровый) Solod

Файл
Формат: MKV
Качество: WEB-DLRip-AVC
Видео: MPEG-4 AVC, 768×320, ~ 1124 Кбит/с
Аудио: AAC-LC, 2 ch, ~ 76 Кбит/с
Субтитры: нет

MI

Общее
Уникальный идентификатор : 182780990115431566797078378220489329545 (0x898256951D4B947D9A7E9C87A578CB89)
Полное имя : D:MOVIESActs.of.Violence.2018.ExKinoRay.mkv
Формат : Matroska
Версия формата : Version 4 / Version 2
Размер файла : 745 Мбайт
Продолжительность : 1 ч. 26 м.
Общий поток : 1201 Кбит/сек
Дата кодирования : UTC 2018-01-22 05:45:04
Программа кодирования : mkvmerge v15.0.0 (‘Duel with the Devil’) 64-bit
Библиотека кодирования : libebml v1.3.5 + libmatroska v1.4.5

Видео
Идентификатор : 1
Формат : AVC
Формат/Информация : Advanced Video Codec
Профиль формата : [email protected]
Параметр CABAC формата : Да
Параметр RefFrames формата : 10 кадров
Идентификатор кодека : V_MPEG4/ISO/AVC
Продолжительность : 1 ч. 26 м.
Битрейт : 1124 Кбит/сек
Ширина : 768 пикселей
Высота : 320 пикселей
Соотношение сторон : 2,40:1
Режим частоты кадров : Постоянный
Частота кадров : 23,976 (24000/1001) кадра/сек
Цветовое пространство : YUV
Субдискретизация насыщенности : 4:2:0
Битовая глубина : 8 бит
Тип развёртки : Прогрессивная
Бит/(Пиксели*Кадры) : 0.191
Размер потока : 697 Мбайт (93%)
Библиотека кодирования : x264 core 152 r2851 ba24899
Настройки программы : cabac=1 / ref=10 / deblock=1:-3:-3 / analyse=0x3:0x133 / me=umh / subme=11 / psy=1 / psy_rd=1.00:0.12 / mixed_ref=1 / me_range=32 / chroma_me=1 / trellis=2 / 8x8dct=1 / cqm=0 / deadzone=21,11 / fast_pskip=0 / chroma_qp_offset=-3 / threads=6 / lookahead_threads=1 / sliced_threads=0 / nr=0 / decimate=0 / interlaced=0 / bluray_compat=0 / constrained_intra=0 / bframes=10 / b_pyramid=2 / b_adapt=2 / b_bias=0 / direct=3 / weightb=1 / open_gop=0 / weightp=2 / keyint=240 / keyint_min=23 / scenecut=40 / intra_refresh=0 / rc_lookahead=40 / rc=2pass / mbtree=0 / bitrate=1124 / ratetol=1.0 / qcomp=0.60 / qpmin=0 / qpmax=69 / qpstep=4 / cplxblur=20.0 / qblur=0.5 / vbv_maxrate=50000 / vbv_bufsize=62500 / nal_hrd=none / filler=0 / ip_ratio=1.40 / pb_ratio=1.30 / aq=1:1.00
Default : Да
Forced : Нет

Аудио
Идентификатор : 2
Формат : AAC
Формат/Информация : Advanced Audio Codec
Профиль формата : LC
Идентификатор кодека : A_AAC
Продолжительность : 1 ч. 26 м.
Битрейт : 76,0 Кбит/сек
Каналы : 2 канала
Расположение каналов : Front: L R
Частота : 48,0 КГц
Частота кадров : 46,875 кадров/сек (1024 SPF)
Метод сжатия : С потерями
Задержка видео : 9 мс.
Размер потока : 47,2 Мбайт (6%)
Default : Да
Forced : Нет

Меню
00:00:00.000 : en:1
00:10:31.000 : en:2
00:19:56.000 : en:3
00:26:10.000 : en:4
00:34:50.000 : en:5
00:42:27.000 : en:6
00:51:49.000 : en:7
01:00:58.000 : en:8
01:07:17.000 : en:9
01:20:49.000 : en:10

Скриншоты

Релиз от:

Добавлен 22-01-2018 8:51:02 (38 секунд назад)
Размер 745.29 MB (781495994 Bytes)  





Добавить комментарий

Ваш e-mail не будет опубликован. Обязательные поля помечены *

*
*