Акты насилия / Acts of Violence (2018) WEB-DLRip-AVC | L1

Скачать торрент (Doddle Loader)

Зеркало 1 (Media Get)

Информация о фильме
Название: Акты насилия
Оригинальное название: Acts of Violence
Год выхода: 2018
Режиссер: Бретт Доноху
В ролях: Брюс Уиллис, Коул Хаузер, Шон Эшмор, Эштон Холмс, Мелисса Болона, Шон Броснан, София Буш, Майк Эппс, Тиффани Броувер, Дженна Б. Келли

О фильме:
Чтобы спасти свою невесту, которая попала в лапы торговцев людьми Роман должен вспомнить свои военные навыки и объединить усилия с бывшими сослуживцами и жестким полицейским, расследующим подобные дела.

Страна: Канада, США
Студия: Colecar Productions
Продолжительность: 01:26:46

Файл
Качество: WEB-DLRip-AVC
Видео: AVC/H.264, 1024×426, ~2000 kbps
Аудио: AC3, 6 ch, 448 kbps
Субтитры: Отсутствуют
Релиз от: VoiceOver Solod

Скриншоты:

MI

General
Unique ID : 321864274526938982952643433834239507249 (0xF224CDEF62D13FF101E4A62155F03B31)
Complete name : acts.of.violence.2018.1024.solod.rus.5.1.mkv
Format : Matroska
Format version : Version 4 / Version 2
File size : 1.48 GiB
Duration : 1 h 26 min
Overall bit rate : 2 450 kb/s
Movie name : Acts of Violence | 2018 | Solod
Released date : 2018
Encoded date : UTC 2018-01-21 19:09:11 / UTC 2018-01-20T14:14:15Z
Writing application : mkvmerge v19.0.0 (‘Brave Captain’) 64-bit
Writing library : libebml v1.3.5 + libmatroska v1.4.8 / Lavf57.7.2

Video
ID : 1
Format : AVC
Format/Info : Advanced Video Codec
Format profile : [email protected]
Format settings : CABAC / 10 Ref Frames
Format settings, CABAC : Yes
Format settings, ReFrames : 10 frames
Codec ID : V_MPEG4/ISO/AVC
Duration : 1 h 26 min
Bit rate : 2 000 kb/s
Width : 1 024 pixels
Height : 426 pixels
Display aspect ratio : 2.40:1
Original display aspect ratio : 2.40:1
Frame rate mode : Constant
Frame rate : 23.976 (24000/1001) FPS
Color space : YUV
Chroma subsampling : 4:2:0
Bit depth : 8 bits
Scan type : Progressive
Bits/(Pixel*Frame) : 0.191
Stream size : 1.18 GiB (80%)
Writing library : x264 core 152
Encoding settings : cabac=1 / ref=10 / deblock=1:-2:-2 / analyse=0x3:0x113 / me=umh / subme=11 / psy=1 / psy_rd=1,15:0,20 / mixed_ref=1 / me_range=24 / chroma_me=1 / trellis=2 / 8x8dct=1 / cqm=0 / deadzone=21,11 / fast_pskip=1 / chroma_qp_offset=-3 / threads=6 / lookahead_threads=1 / sliced_threads=0 / nr=0 / decimate=1 / interlaced=0 / bluray_compat=0 / constrained_intra=0 / bframes=11 / b_pyramid=2 / b_adapt=1 / b_bias=0 / direct=1 / weightb=1 / open_gop=0 / weightp=2 / keyint=240 / keyint_min=24 / scenecut=40 / intra_refresh=0 / rc_lookahead=40 / rc=2pass / mbtree=1 / bitrate=2000 / ratetol=1,0 / qcomp=0,60 / qpmin=0 / qpmax=69 / qpstep=4 / cplxblur=20,0 / qblur=0,5 / vbv_maxrate=62500 / vbv_bufsize=78125 / nal_hrd=none / filler=0 / ip_ratio=1,40 / aq=1:1,00
Default : Yes
Forced : No
Color range : Limited
Color primaries : BT.709
Transfer characteristics : BT.709
Matrix coefficients : BT.709
Statistics Tags Issue : mkvmerge v19.0.0 (‘Brave Captain’) 64-bit 2018-01-21 19:09:11 / mkvmerge v19.0.0 (‘Brave Captain’) 64-bit 2018-01-21 19:09:11 / UTC 2018-01-20T14:14:15Z
FromStats_BitRate : 2000042
FromStats_Duration : 01:26:46.326000000
FromStats_FrameCount : 124827
FromStats_StreamSize : 1301609202

Audio
ID : 2
Format : AC-3
Format/Info : Audio Coding 3
Codec ID : A_AC3
Duration : 1 h 26 min
Bit rate mode : Constant
Bit rate : 448 kb/s
Channel(s) : 6 channels
Channel positions : Front: L C R, Side: L R, LFE
Sampling rate : 48.0 kHz
Frame rate : 31.250 FPS (1536 SPF)
Bit depth : 16 bits
Compression mode : Lossy
Stream size : 278 MiB (18%)
Title : vo solod
Language : Russian
Service kind : Complete Main
Default : Yes
Forced : No
Statistics Tags Issue : mkvmerge v19.0.0 (‘Brave Captain’) 64-bit 2018-01-21 19:09:11 / mkvmerge v19.0.0 (‘Brave Captain’) 64-bit 2018-01-21 19:09:11 / UTC 2018-01-20T14:14:15Z
FromStats_BitRate : 448000
FromStats_Duration : 01:26:46.336000000
FromStats_FrameCount : 162698
FromStats_StreamSize : 291554816

Menu
00:00:00.083 : :1
00:10:31.047 : :2
00:19:56.070 : :3
00:26:10.069 : :4
00:34:50.046 : :5
00:42:27.045 : :6
00:51:49.064 : :7
01:00:58.113 : :8
01:07:17.075 : :9
01:20:49.094 : :10

Добавлен 22-01-2018 9:56:28 (3 секунды назад)
Размер 1.48 GB (1594298831 Bytes)  





Добавить комментарий

Ваш e-mail не будет опубликован. Обязательные поля помечены *

*
*