Ад первой любви / Hatsukoi: Jigoku-hen (1968) BDRip 720p | L1

Скачать торрент (Doddle Loader)

Зеркало 1 (Media Get)

Информация о фильме
Название: Ад первой любви
Оригинальное название: Hatsukoi: Jigoku-hen
Год выхода: 1968
Жанр: драма
Режиссер: Сусуму Хани
В ролях: Hаруо Асану, Казуко Фукуда, Кунико Исий, Итиро Кимура, Кацуо Кимура, Кодзи Мицуи, Мисако Миято, Кимико Накамура, Акио Такахаси, Минору Юаса

Описание: Нанами и Сюн — несовершеннолетние, их непреодолимо влечет тайна любви. Но как насладиться этой тайной, не испачкавшись. Грязь окружает их повсюду: обман, насилие, распутство. В столице так много соблазнов. К тому же над каждым из нас довлеет прошлое.

Страна: Япония
Продолжительность: 01:48:19
Перевод: Любительский (одноголосый закадровый) О. Воротилин
Субтитры: русские, английские
Оригинальная аудиодорожка: японский

Файл
Качество: BDRip 720p
Видео: AVC / 960×720 / 4:3 / 23.976 fps / 7500 kbps / [email protected]
Аудио 1: Rus / AC3 / 48.0 KHz / 2.0 / 192 kbps / VO / О. Воротилин
Аудио 2: Jap / DTS / 48.0 KHz / 2.0 / 768 kbps / 16 bit

Скриншоты

MediaInfo

Общее
Уникальный идентификатор : 181299271443950180945346848979394265587 (0x8864F83631E85952746FE6CD3E2481F3)
Полное имя : Nanami.The.Inferno.of.First.Love.1968.BDRip.720p.mkv
Формат : Matroska
Версия формата : Version 4 / Version 2
Размер файла : 6,40 Гбайт
Продолжительность : 1 ч. 48 м.
Общий поток : 8463 Кбит/сек
Название фильма : Nanami.The.Inferno.of.First.Love.1968.BDRip.720p-porvaliparus
Дата кодирования : UTC 2018-01-19 22:10:48
Программа кодирования : mkvmerge v20.0.0 (‘I Am The Sun’) 64-bit
Библиотека кодирования : libebml v1.3.5 + libmatroska v1.4.8

Видео
Идентификатор : 1
Формат : AVC
Формат/Информация : Advanced Video Codec
Профиль формата : [email protected]
Настройки формата : CABAC / 12 Ref Frames
Параметр CABAC формата : Да
Параметр RefFrames формата : 12 кадров
Идентификатор кодека : V_MPEG4/ISO/AVC
Продолжительность : 1 ч. 48 м.
Битрейт : 7500 Кбит/сек
Ширина : 960 пикселей
Высота : 720 пикселей
Соотношение сторон : 4:3
Режим частоты кадров : Постоянный
Частота кадров : 23,976 (24000/1001) кадра/сек
Цветовое пространство : YUV
Субдискретизация насыщенности : 4:2:0
Битовая глубина : 8 бит
Тип развёртки : Прогрессивная
Бит/(Пиксели*Кадры) : 0.453
Размер потока : 5,67 Гбайт (89%)
Заголовок : Nanami.The.Inferno.of.First.Love.1968.BDRip.720p
Библиотека кодирования : x264 core 152 r2851 ba24899
Настройки программы : cabac=1 / ref=12 / deblock=1:-3:-3 / analyse=0x3:0x133 / me=umh / subme=11 / psy=1 / psy_rd=1.00:0.10 / mixed_ref=1 / me_range=32 / chroma_me=1 / trellis=2 / 8x8dct=1 / cqm=0 / deadzone=21,11 / fast_pskip=0 / chroma_qp_offset=-3 / threads=12 / lookahead_threads=3 / sliced_threads=0 / nr=0 / decimate=1 / interlaced=0 / bluray_compat=0 / constrained_intra=0 / bframes=10 / b_pyramid=2 / b_adapt=2 / b_bias=0 / direct=3 / weightb=1 / open_gop=0 / weightp=2 / keyint=250 / keyint_min=23 / scenecut=40 / intra_refresh=0 / rc_lookahead=40 / rc=2pass / mbtree=0 / bitrate=7500 / ratetol=1.0 / qcomp=0.60 / qpmin=0 / qpmax=69 / qpstep=4 / cplxblur=20.0 / qblur=0.5 / vbv_maxrate=50000 / vbv_bufsize=62500 / nal_hrd=none / filler=0 / ip_ratio=1.40 / pb_ratio=1.30 / aq=1:0.80
Default : Да
Forced : Нет

Аудио #1
Идентификатор : 2
Формат : AC-3
Формат/Информация : Audio Coding 3
Идентификатор кодека : A_AC3
Продолжительность : 1 ч. 48 м.
Вид битрейта : Постоянный
Битрейт : 192 Кбит/сек
Каналы : 2 канала
Расположение каналов : Front: L R
Частота : 48,0 КГц
Частота кадров : 31,250 кадров/сек (1536 SPF)
Битовая глубина : 16 бит
Метод сжатия : С потерями
Размер потока : 149 Мбайт (2%)
Заголовок : VO (О. Воротилин)
Язык : Russian
Default : Да
Forced : Нет

Аудио #2
Идентификатор : 3
Формат : DTS
Формат/Информация : Digital Theater Systems
Идентификатор кодека : A_DTS
Продолжительность : 1 ч. 48 м.
Вид битрейта : Постоянный
Битрейт : 768 Кбит/сек
Каналы : 2 канала
Расположение каналов : Front: L R
Частота : 48,0 КГц
Частота кадров : 93,750 кадра/сек (512 SPF)
Битовая глубина : 16 бит
Метод сжатия : С потерями
Размер потока : 595 Мбайт (9%)
Язык : Japanese
Default : Нет
Forced : Нет

Текст #1
Идентификатор : 4
Формат : UTF-8
Идентификатор кодека : S_TEXT/UTF8
Идентификатор кодека/Информация : UTF-8 Plain Text
Продолжительность : 1 ч. 48 м.
Битрейт : 57 бит/сек
ElementCount : 928
Размер потока : 45,7 Кбайт (0%)
Заголовок : Severnyi
Язык : Russian
Default : Нет
Forced : Нет

Текст #2
Идентификатор : 5
Формат : UTF-8
Идентификатор кодека : S_TEXT/UTF8
Идентификатор кодека/Информация : UTF-8 Plain Text
Продолжительность : 1 ч. 46 м.
Битрейт : 32 бит/сек
ElementCount : 923
Размер потока : 25,5 Кбайт (0%)
Язык : English
Default : Нет
Forced : Нет

Меню
00:00:00.000 : en:(01)00:00:00:000
00:07:08.386 : en:(02)00:07:08:386
00:12:19.822 : en:(03)00:12:19:822
00:18:45.833 : en:(04)00:18:45:833
00:28:01.846 : en:(05)00:28:01:846
00:38:20.214 : en:(06)00:38:20:214
00:43:24.310 : en:(07)00:43:24:310
00:53:43.220 : en:(08)00:53:43:220
01:02:01.300 : en:(09)01:02:01:300
01:12:32.222 : en:(10)01:12:32:222
01:21:07.320 : en:(11)01:21:07:320
01:34:17.401 : en:(12)01:34:17:401
01:40:32.276 : en:(13)01:40:32:276

Добавлен 21-01-2018 19:39:05 (37 секунд назад)
Размер 6.40 GB (6874657807 Bytes)  





Добавить комментарий

Ваш e-mail не будет опубликован. Обязательные поля помечены *

*
*